Поиск

(Avant-Garde) Franz Koglmann - O Moon My Pin-Up - 1997, APE (image+.cue), lossless

Треклист:
Franz Koglmann - O Moon My Pin-Up
Жанр: Avant-Garde
Год выпуска диска: 1997
Производитель диска: Switzerland(hatOLOGY)-2001
Аудио кодек: APE
Тип рипа: image+.cue
Битрейт аудио: lossless
Продолжительность: 43:45
Трэклист:
1 Introduction 0:55
2 First Movement, Clouds: I 1:56
3 First Movement, Clouds: II a 1:51
4 First Movement, Clouds: II B 1:34
5 First Movement, Clouds: II C 4:41
7 Second Movement, Cassandra: IV 3:37
8 Second Movement, Cassandra: V 4:36
9 Second Movement, Cassandra: VI 0:44
10 Second Movement, Cassandra: VII 5:10
11 Second Movement, Cassandra: VIII 1:44
12 Third Movement, Distinctions: IX 5:33
13 Third Movement, Distinctions: X 9:08
Christian Baier- Compilation, Concept, Creative Consultant
Gustav Bauer- Conductor
Tony Coe- Clarinet, Sax (Tenor)
Raoul Herget- Tuba
Michael Hintersteininger- Guitar
Franz Koglmann- Trumpet, Flugelhorn, Contribution
Colin Mason- Bass (Vocal)
Phil Minton- Voices
Peter Pfister- Digital Mastering
Barre Phillips- Bass
Ezra Pound- Text
Доп. информация: Рип сделан собственноручно,сканы обложки внутри.
 
Отчёт EAC об извлечении, выполненном 11. сентября 2008
Exact Audio Copy V0.99 prebeta 3 from 28. July 2007
Отчёт EAC об извлечении, выполненном 11. сентября 2008, 18:44
Franz Koglmann / O Moon My Pin-Up
Дисковод: Optiarc DVD RW AD-7203A Adapter: 0 ID: 1
Режим чтения : Достоверность
Использование точного потока : Да
Отключение кэша аудио : Да
Использование указателей C2 : Нет
Коррекция смещения при чтении : 48
Способность читать области Lead-in и Lead-out : Нет
Заполнение пропущенных сэмплов тишиной : Да
Удаление блоков с тишиной в начале и конце : Нет
При вычислениях CRC использовались нулевые сэмплы : Да
Интерфейс : Установленный внешний ASPI-интерфейс
Выходной формат : Monkey's Audio Lossless Encoder v3.99 DLL
Формат сэмплов : Normal Lossless Compression
TOC извлечённого CD
Трек | Старт | Длительность | Начальный сектор | Конечный сектор
---------------------------------------------------------------------
1 | 0:00.00 | 0:55.62 | 0 | 4186
2 | 0:55.62 | 1:56.00 | 4187 | 12886
3 | 2:51.62 | 1:51.00 | 12887 | 21211
4 | 4:42.62 | 1:34.00 | 21212 | 28261
5 | 6:16.62 | 2:13.00 | 28262 | 38236
6 | 8:29.62 | 4:41.00 | 38237 | 59311
7 | 13:10.62 | 3:37.00 | 59312 | 75586
8 | 16:47.62 | 4:36.00 | 75587 | 96286
9 | 21:23.62 | 0:44.00 | 96287 | 99586
10 | 22:07.62 | 5:10.00 | 99587 | 122836
11 | 27:17.62 | 1:44.00 | 122837 | 130636
12 | 29:01.62 | 5:33.00 | 130637 | 155611
13 | 34:34.62 | 9:08.13 | 155612 | 196724
Характеристики диапазона извлечения и сообщения об ошибках
Выбранный диапазон
Имя файла C:\Documents and Settings\1\Рабочий стол\Franz Koglmann - O Moon My Pin-Up.ape
Пиковый уровень 91.2 %
Качество диапазона 99.9 %
CRC теста 6C686757
CRC копии 6C686757
Копирование... OK
Ошибок не произошло
AccurateRip: сводка
Трек 1 нет в базе данных
Трек 2 нет в базе данных
Трек 3 нет в базе данных
Трек 4 нет в базе данных
Трек 5 нет в базе данных
Трек 6 нет в базе данных
Трек 7 нет в базе данных
Трек 8 нет в базе данных
Трек 9 нет в базе данных
Трек 10 нет в базе данных
Трек 11 нет в базе данных
Трек 12 нет в базе данных
Трек 13 нет в базе данных
Ни одного трека нет в базе AccurateRip
Конец отчёта
 
Review by Steve Loewy
Review by Steve Loewy
This magnificent production joins a beautifully designed 125-page oversized paperback (with informative notes, photos, an interview with composer/trumpeter Koglman, and more) and an outstanding musical interpretation by the Franz Koglman "Pipetet" of a portion of the Pisan Cantos by Ezra Pound. Meant to be a serious work of art, this recording combines elements of opera, classical music, and jazz improvisation to produce, if not a synthesis, then at least a studied detente among seemingly disparate elements. The success of this project lies not only with the strong musicians, who include vocalist Phil Minton (reciting Pound), clarinetist/tenor saxophonist Tony Coe, and string bassist Barre Phillips, with the leader doubling as trumpeter and composer. If the jazz element is less than on some other recordings led by Koglman, no matter: the recording succeeds on multiple levels, and is an important work of 20th-century culture.
 
PROMT :)
Это великолепное производение присоединяется к красиво разработанной негабаритной книге в мягкой обложке на 125 страниц (с информативными нотами, фотографиями, интервью с композитором/трубачом Koglman, и больше) и выдающаяся музыкальная интерпретация Franz Koglman "Pipetet" части "Pisan Cantos" by Ezra Pound. Предназначенный, чтобы быть серьезным произведением искусства, эта запись объединяет элементы оперы, классической музыки, и джазовой импровизации, чтобы произвести, если не синтез, то по крайней мере изученная разрядка среди по-видимому несоизмеримых элементов. Успех этого проекта находится не только с сильными музыкантами, которые включают вокалиста Фила Minton (озвучивающего Pound), саксофонист кларнетиста/тенора Тони Coe, и струнный басист Barre Phillips,и с лидером, выступающем как трубач и композитор. Если джазовый элемент присутствет меньше, чем на других записях Koglman, независимо от того: проект успешен на разных уровнях, и является важной работой культуры 20-ого столетия
Приватный:
Нет (DHT включён)
Размер:
193.45 Мб (202,850,282 байт) » файлов: 8
Участники:
0 раздают, 0 качают (0 участников всего)
Внешние участники:
1 раздают, 0 качают (1 участников всего) [ Обновить ]
No seeders - write a personal message to user M0p94ok. Нет сидеров - пишите личное сообщение пользователю M0p94ok.
03:25
50
Нет комментариев. Ваш будет первым!