Поиск

(avantgarde, free improvisation, free jazz) Derek Bailey - Duo & Trio Improvisation (feat. Toshinori Kondo, Kaoru Abe) - 1978, FLAC (image+.cue), lossless

Треклист:
Derek Bailey - Duo & Trio Improvisation (feat. Toshinori Kondo, Kaoru Abe)
Жанр: avantgarde, free improvisation, free jazz
Год выпуска диска: 1978
Производитель диска: Japan (Kitty Records)
Аудио кодек: FLAC
Тип рипа: image+.cue
Битрейт аудио: lossless
Продолжительность: 76.27
Трэклист:
1. Improvisation 21
2. Improvisation 22
3. Improvisation 23
4. Improvisation 24
5. Improvisation 25
6. Improvisation 26
7. Improvisation 27
8. Improvisation 28
9. Improvisation 29
10. Collective Improvisation 1
11. Collective Improvisation 2
Доп. информация: Derek Bailey - elecrtic & acoustic guitars
Toshinori Kondo - trumpet, alto horn
Kaoru Abe - alto sax
Mototeru Takagi - tenor & alto sax
Motoharu Yoshizawa - bass
Toshi Tsuchitori - drums & percussion
 
eac log
Exact Audio Copy V0.99 prebeta 4 from 23. January 2008
Отчёт EAC об извлечении, выполненном 5. сентября 2008, 17:25
Bailey, Derek / Duo & Trio Improvisations
Дисковод: Optiarc DVD RW AD-7170A Adapter: 0 ID: 1
Режим чтения : Достоверность
Использование точного потока : Да
Отключение кэша аудио : Да
Использование указателей C2 : Нет
Коррекция смещения при чтении : 48
Способность читать области Lead-in и Lead-out : Нет
Заполнение пропущенных сэмплов тишиной : Да
Удаление блоков с тишиной в начале и конце : Нет
При вычислениях CRC использовались нулевые сэмплы : Нет
Интерфейс : Встроенный Win32-интерфейс для Win NT/2000
Выходной формат : Пользовательский кодировщик
Выбранный битрейт : 768 kBit/s
Качество : Высокий
Добавление ID3-тэга : Нет
Утилита сжатия : D:\Program Files\Exact Audio Copy\FLAC\FLAC.EXE
Дополнительные параметры : -6 -V -T "ARTIST=%a" -T "TITLE=%t" -T "ALBUM=%g" -T "DATE=%y" -T "TRACKNUMBER=%n" -T "GENRE=%m" -T "COMMENT=%e" %s -o %d
TOC извлечённого CD
Трек | Старт | Длительность | Начальный сектор | Конечный сектор
---------------------------------------------------------------------
1 | 0:00.00 | 9:28.65 | 0 | 42664
2 | 9:28.65 | 2:36.37 | 42665 | 54401
3 | 12:05.27 | 12:13.48 | 54402 | 109424
4 | 24:19.00 | 8:03.40 | 109425 | 145689
5 | 32:22.40 | 2:02.72 | 145690 | 154911
6 | 34:25.37 | 5:47.08 | 154912 | 180944
7 | 40:12.45 | 6:27.42 | 180945 | 210011
8 | 46:40.12 | 3:36.48 | 210012 | 226259
9 | 50:16.60 | 5:50.60 | 226260 | 252569
10 | 56:07.45 | 7:07.52 | 252570 | 284646
11 | 63:15.22 | 13:11.55 | 284647 | 344026
Характеристики диапазона извлечения и сообщения об ошибках
Выбранный диапазон
Имя файла D:\EAC\Bailey, Derek - Duo & Trio Improvisations.wav
Пиковый уровень 100.0 %
Качество диапазона 99.8 %
CRC копии B5836276
Копирование... OK
Ошибок не произошло
AccurateRip: сводка
Трек 1 нет в базе данных
Трек 2 нет в базе данных
Трек 3 нет в базе данных
Трек 4 нет в базе данных
Трек 5 нет в базе данных
Трек 6 нет в базе данных
Трек 7 нет в базе данных
Трек 8 нет в базе данных
Трек 9 нет в базе данных
Трек 10 нет в базе данных
Трек 11 нет в базе данных
Ни одного трека нет в базе AccurateRip
Конец отчёта
Приватный:
Нет (DHT включён)
Размер:
386.87 Мб (405,657,399 байт) » файлов: 3
Участники:
0 раздают, 0 качают (0 участников всего)
Внешние участники:
1 раздают, 0 качают (1 участников всего) [ Обновить ]
No seeders - write a personal message to user M0p94ok. Нет сидеров - пишите личное сообщение пользователю M0p94ok.
03:19
57
Нет комментариев. Ваш будет первым!