Поиск

(japanese avant-jazz-progessive) Tipographica - God Says I Can't Dance (featuring Naruyoshi Kikuchi) - 1996, FLAC (image+.cue), lossless

Треклист:
Tipographica - God Says I Can't Dance (featuring Naruyoshi Kikuchi)
Жанр: japanese avant-jazz-progessive
Год выпуска диска: 1996
Производитель диска: Japan
Аудио кодек: FLAC
Тип рипа: image+.cue
Битрейт аудио: lossless
Продолжительность: 59.59
Трэклист:
01. Friends (8:54)
02. Control Tower Says 'TP-1, Break Down' (8:45)
03. AM 3:28 Shinjuku AM 3:45 Kasumigaseki AM 5:02 Berlin - White Collar Worker VS Black Rubber Man (11:22)
04. And Then The Last Ship Is Going (7:35)
05. Japanese Room (we Have No ZEN) (7:34)
06. Laughin' Photograph (8:15)
07. Forest Tipographical II (7:34)
Доп. информация: Tipographica:
- Tsuneo Imahori / guitar
- Naruyoshi Kikuchi / saxophone
- Osamu Matsumoto / trombone
- Akira Minakami / keyboards
- Hiroaki Mizutani / bass
- Akira Sotoyama / drums
with:
+ Kazuto Shimizu / mokkin(xylophone)
Хехе. Вот загадка для взрослых (и) детей - кто любит размеры композиций считать? Зацените ритм-секцию.. And even God says - I Can't Dance!
Очень рекомендую любителям поломать голову =)
Must have for Frank Zappa, Fred Frith, Magma, Yoshida Tatsuya fans.
 
eac log
Exact Audio Copy V0.99 prebeta 4 from 23. January 2008
Отчёт EAC об извлечении, выполненном 4. сентября 2008, 3:32
Tipographica / God Says I Can't Dance
Дисковод: Optiarc DVD RW AD-7170A Adapter: 0 ID: 1
Режим чтения : Достоверность
Использование точного потока : Да
Отключение кэша аудио : Да
Использование указателей C2 : Нет
Коррекция смещения при чтении : 48
Способность читать области Lead-in и Lead-out : Нет
Заполнение пропущенных сэмплов тишиной : Да
Удаление блоков с тишиной в начале и конце : Нет
При вычислениях CRC использовались нулевые сэмплы : Нет
Интерфейс : Встроенный Win32-интерфейс для Win NT/2000
Выходной формат : Пользовательский кодировщик
Выбранный битрейт : 768 kBit/s
Качество : Высокий
Добавление ID3-тэга : Нет
Утилита сжатия : D:\Program Files\Exact Audio Copy\FLAC\FLAC.EXE
Дополнительные параметры : -6 -V -T "ARTIST=%a" -T "TITLE=%t" -T "ALBUM=%g" -T "DATE=%y" -T "TRACKNUMBER=%n" -T "GENRE=%m" -T "COMMENT=%e" %s -o %d
TOC извлечённого CD
Трек | Старт | Длительность | Начальный сектор | Конечный сектор
---------------------------------------------------------------------
1 | 0:00.00 | 8:54.00 | 0 | 40049
2 | 8:54.00 | 8:44.60 | 40050 | 79409
3 | 17:38.60 | 11:24.47 | 79410 | 130756
4 | 29:03.32 | 7:33.30 | 130757 | 164761
5 | 36:36.62 | 7:33.58 | 164762 | 198794
6 | 44:10.45 | 8:14.70 | 198795 | 235914
7 | 52:25.40 | 7:33.30 | 235915 | 269919
Характеристики диапазона извлечения и сообщения об ошибках
Выбранный диапазон
Имя файла D:\EAC\Tipographica - God Says I Can't Dance.wav
Пиковый уровень 99.9 %
Качество диапазона 100.0 %
CRC копии 411F3822
Копирование... OK
Ошибок не произошло
AccurateRip: сводка
Трек 1 нет в базе данных
Трек 2 нет в базе данных
Трек 3 нет в базе данных
Трек 4 нет в базе данных
Трек 5 нет в базе данных
Трек 6 нет в базе данных
Трек 7 нет в базе данных
Ни одного трека нет в базе AccurateRip
Конец отчёта
Приватный:
Нет (DHT включён)
Размер:
367.35 Мб (385,196,355 байт) » файлов: 3
Участники:
0 раздают, 0 качают (0 участников всего)
Внешние участники:
3 раздают, 1 качают (4 участников всего) [ Обновить ]
No seeders - write a personal message to user M0p94ok. Нет сидеров - пишите личное сообщение пользователю M0p94ok.
03:18
70
Нет комментариев. Ваш будет первым!