Поиск

(Avant-garde) Arcado String Trio - Live in Europe - 1996, FLAC (image+.cue), lossless

(Avant-garde) Arcado String Trio - Live in Europe - 1996, FLAC (image+.cue), lossless
Треклист:
Arcado String Trio - Live in Europe
Жанр: Avant-garde
Год выпуска диска: 1996
Производитель диска: Germany
Аудио кодек: FLAC
Тип рипа: image+.cue
Битрейт аудио: lossless
Продолжительность: 1:12:59
Ernst Reijseger cello
Mark Dresser double bass
Mark Feldman violin
Harkening
Xanax
Armadillo
Lanette
Ediface
Biruta
Behind the Myth
 
EAC Report
Exact Audio Copy V0.99 prebeta 4 from 23. January 2008
EAC extraction logfile from 26. July 2008, 20:18
Arcado String Trio / Live in Europe
Used drive : TSSTcorpCD/DVDW SH-S182M Adapter: 2 ID: 1
Read mode : Secure
Utilize accurate stream : Yes
Defeat audio cache : Yes
Make use of C2 pointers : No
Read offset correction : 6
Overread into Lead-In and Lead-Out : No
Fill up missing offset samples with silence : Yes
Delete leading and trailing silent blocks : No
Null samples used in CRC calculations : No
Used interface : Installed external ASPI interface
Used output format : User Defined Encoder
Selected bitrate : 1024 kBit/s
Quality : High
Add ID3 tag : No
Command line compressor : C:\Program Files\Exact Audio Copy\FLAC\FLAC.EXE
Additional command line options : -6 -V -T "ARTIST=%a" -T "TITLE=%t" -T "ALBUM=%g" -T "DATE=%y" -T "TRACKNUMBER=%n" -T "GENRE=%m" -T "COMMENT=%e" %s -o %d
TOC of the extracted CD
Track | Start | Length | Start sector | End sector
---------------------------------------------------------
1 | 0:00.00 | 11:04.72 | 0 | 49871
2 | 11:04.72 | 6:31.68 | 49872 | 79264
3 | 17:36.65 | 8:42.17 | 79265 | 118431
4 | 26:19.07 | 10:15.70 | 118432 | 164626
5 | 36:35.02 | 11:07.40 | 164627 | 214691
6 | 47:42.42 | 8:59.53 | 214692 | 255169
7 | 56:42.20 | 16:16.42 | 255170 | 328411
Range status and errors
Selected range
Filename F:\z\Arcado String Trio - Live in Europe.wav
Peak level 99.8 %
Range quality 100.0 %
Copy CRC 76B053D6
Copy OK
No errors occurred
AccurateRip summary
Track 1 not present in database
Track 2 not present in database
Track 3 not present in database
Track 4 not present in database
Track 5 not present in database
Track 6 not present in database
Track 7 not present in database
None of the tracks are present in the AccurateRip database
End of status report

Приватный:
Нет (DHT включён)
Размер:
342.41 Мб (359,040,123 байт) » файлов: 5
Участники:
0 раздают, 0 качают (0 участников всего)
Внешние участники:
1 раздают, 0 качают (1 участников всего) [ Обновить ]
No seeders - write a personal message to user M0p94ok. Нет сидеров - пишите личное сообщение пользователю M0p94ok.
03:17
45
Нет комментариев. Ваш будет первым!