Поиск

(Avant-garde) Arcado String Trio - For Three Strings and Orchestra - 1992, FLAC (image+.cue), lossless

(Avant-garde) Arcado String Trio - For Three Strings and Orchestra - 1992, FLAC (image+.cue), lossless
Треклист:
Arcado String Trio - For Three Strings and Orchestra
Жанр: Avant-garde
Год выпуска диска: 1992
Производитель диска: Germany
Аудио кодек: FLAC
Тип рипа: image+.cue
Битрейт аудио: lossless
Продолжительность: 1:06:21
Hank Roberts cello
Mark Dresser double bass
Mark Feldman violin
with Kölner Rundfunk Orchester, conductor David De Villiers
For Not the Law
It's A Free Country Isn't It?
In Cold Moonlight
Naked Singularities
 
EAC Report
Exact Audio Copy V0.99 prebeta 4 from 23. January 2008
EAC extraction logfile from 26. July 2008, 21:41
Arcado / For Three Strings & Orchestra
Used drive : TSSTcorpCD/DVDW SH-S182M Adapter: 2 ID: 1
Read mode : Secure
Utilize accurate stream : Yes
Defeat audio cache : Yes
Make use of C2 pointers : No
Read offset correction : 6
Overread into Lead-In and Lead-Out : No
Fill up missing offset samples with silence : Yes
Delete leading and trailing silent blocks : No
Null samples used in CRC calculations : No
Used interface : Installed external ASPI interface
Used output format : User Defined Encoder
Selected bitrate : 1024 kBit/s
Quality : High
Add ID3 tag : No
Command line compressor : C:\Program Files\Exact Audio Copy\FLAC\FLAC.EXE
Additional command line options : -6 -V -T "ARTIST=%a" -T "TITLE=%t" -T "ALBUM=%g" -T "DATE=%y" -T "TRACKNUMBER=%n" -T "GENRE=%m" -T "COMMENT=%e" %s -o %d
TOC of the extracted CD
Track | Start | Length | Start sector | End sector
---------------------------------------------------------
1 | 0:00.00 | 17:18.57 | 0 | 77906
2 | 17:18.57 | 15:04.00 | 77907 | 145706
3 | 32:22.57 | 12:06.03 | 145707 | 200159
4 | 44:28.60 | 21:51.60 | 200160 | 298544
Range status and errors
Selected range
Filename F:\z\Arcado - For Three Strings & Orchestra.wav
Peak level 98.0 %
Range quality 100.0 %
Copy CRC 0B512269
Copy OK
No errors occurred
AccurateRip summary
Track 1 not present in database
Track 2 not present in database
Track 3 not present in database
Track 4 not present in database
None of the tracks are present in the AccurateRip database
End of status report

Приватный:
Нет (DHT включён)
Размер:
319.74 Мб (335,276,768 байт) » файлов: 5
Участники:
0 раздают, 0 качают (0 участников всего)
Внешние участники:
2 раздают, 1 качают (3 участников всего) [ Обновить ]
No seeders - write a personal message to user M0p94ok. Нет сидеров - пишите личное сообщение пользователю M0p94ok.
03:17
54
Нет комментариев. Ваш будет первым!