Поиск

(Psi Records, Avant-Garde Jazz, Free Improvisation) [CD] VA (Tony Coe, John Edwards, Evan Parker, Kenny Wheeler, Philipp Wachsmann, Alan Hacker, Sylvia Hallett, Marcio Mattos) - Free Zone Appleby 2003 - 2004, FLAC (tracks+.cue), lossless

Треклист:
VA / Free Zone Appleby 2003
Жанр: Psi Records, Avant-Garde Jazz, Free Improvisation
Носитель: CD
Страна-производитель диска: UK
Год издания: 2004
Издатель (лейбл): Psi Records
Номер по каталогу: psi 04.05
Страна исполнителя (группы): UK
Аудиокодек: FLAC (*.flac)
Тип рипа: tracks+.cue
Битрейт аудио: lossless
Продолжительность: 76:32
Источник (релизер): свой фирменный диск
Наличие сканов в содержимом раздачи:
Треклист:
1. S4-1 3:14
2. S4/TC-1 4:58
3. S4-2 5:05
4. W2-1 4:56
5. S4/KW-1 2:42
6. S4-3 4:12
7. S4/EP 5:18
8. S4-4 8:13
9. W2-2 3:13
10. S4/KW-2 7:47
11. S4-5 6:32
12. S4/TC-2 3:19
13. W4/JE 8:53
14. S4/AH 7:16
 
Лог создания рипа
Exact Audio Copy V1.0 beta 3 from 29. August 2011
EAC extraction logfile from 7. October 2014, 20:29
Various Artists / Free Zone Appleby 2003
Used drive : PIONEER DVD-RW DVR-115D Adapter: 0 ID: 0
Read mode : Secure
Utilize accurate stream : Yes
Defeat audio cache : Yes
Make use of C2 pointers : No
Read offset correction : 48
Overread into Lead-In and Lead-Out : No
Fill up missing offset samples with silence : Yes
Delete leading and trailing silent blocks : No
Null samples used in CRC calculations : Yes
Used interface : Installed external ASPI interface
Gap handling : Appended to previous track
Used output format : User Defined Encoder
Selected bitrate : 768 kBit/s
Quality : High
Add ID3 tag : No
Command line compressor : C:\Program Files\Exact Audio Copy\Flac\flac.exe
Additional command line options : -6 -V -T "ARTIST=%artist%" -T "TITLE=%title%" -T "ALBUM=%albumtitle%" -T "DATE=%year%" -T "TRACKNUMBER=%tracknr%" -T "GENRE=%genre%" -T "COMMENT=%comment%" -T "BAND=%albuminterpret%" -T "COMPOSER=%composer%" %haslyrics%--tag-from-file=LYRICS="%lyricsfile%"%haslyrics% -T "DISCNUMBER=%cdnumber%" -T "TOTALDISCS=%totalcds%" -T "TOTALTRACKS=%numtracks%" %hascover%--picture="%coverfile%"%hascover% %source% -o %dest%
TOC of the extracted CD
Track | Start | Length | Start sector | End sector
---------------------------------------------------------
1 | 0:00.00 | 3:18.21 | 0 | 14870
2 | 3:18.21 | 5:02.37 | 14871 | 37557
3 | 8:20.58 | 5:09.53 | 37558 | 60785
4 | 13:30.36 | 4:59.67 | 60786 | 83277
5 | 18:30.28 | 2:46.33 | 83278 | 95760
6 | 21:16.61 | 4:16.06 | 95761 | 114966
7 | 25:32.67 | 5:21.69 | 114967 | 139110
8 | 30:54.61 | 8:17.01 | 139111 | 176386
9 | 39:11.62 | 3:16.68 | 176387 | 191154
10 | 42:28.55 | 7:51.41 | 191155 | 226520
11 | 50:20.21 | 6:35.73 | 226521 | 256218
12 | 56:56.19 | 3:22.65 | 256219 | 271433
13 | 60:19.09 | 8:57.22 | 271434 | 311730
14 | 69:16.31 | 7:16.00 | 311731 | 344430
Track 1
Filename D:\zzz\01 - S4-1.wav
Pre-gap length 0:00:02.00
Peak level 97.1 %
Extraction speed 4.5 X
Track quality 100.0 %
Test CRC E1D4D5BE
Copy CRC E1D4D5BE
Track not present in AccurateRip database
Copy OK
Track 2
Filename D:\zzz\02 - S4 , TC-1.wav
Pre-gap length 0:00:04.00
Peak level 97.1 %
Extraction speed 5.2 X
Track quality 100.0 %
Test CRC FF45880D
Copy CRC FF45880D
Track not present in AccurateRip database
Copy OK
Track 3
Filename D:\zzz\03 - S4-2.wav
Pre-gap length 0:00:04.00
Peak level 97.1 %
Extraction speed 5.7 X
Track quality 100.0 %
Test CRC 6AD301D1
Copy CRC 6AD301D1
Track not present in AccurateRip database
Copy OK
Track 4
Filename D:\zzz\04 - W2-1.wav
Pre-gap length 0:00:04.00
Peak level 97.1 %
Extraction speed 6.1 X
Track quality 100.0 %
Test CRC DC049E6E
Copy CRC DC049E6E
Track not present in AccurateRip database
Copy OK
Track 5
Filename D:\zzz\05 - S4 , KW-1.wav
Pre-gap length 0:00:04.00
Peak level 97.1 %
Extraction speed 5.9 X
Track quality 100.0 %
Test CRC 06312FEF
Copy CRC 06312FEF
Track not present in AccurateRip database
Copy OK
Track 6
Filename D:\zzz\06 - S4-3.wav
Pre-gap length 0:00:04.00
Peak level 97.1 %
Extraction speed 6.5 X
Track quality 100.0 %
Test CRC 364540D4
Copy CRC 364540D4
Track not present in AccurateRip database
Copy OK
Track 7
Filename D:\zzz\07 - S4 , EP.wav
Pre-gap length 0:00:04.00
Peak level 97.2 %
Extraction speed 7.0 X
Track quality 100.0 %
Test CRC CAC75227
Copy CRC CAC75227
Track not present in AccurateRip database
Copy OK
Track 8
Filename D:\zzz\08 - S4-4.wav
Pre-gap length 0:00:04.00
Peak level 97.1 %
Extraction speed 7.3 X
Track quality 99.9 %
Test CRC F991FD05
Copy CRC F991FD05
Track not present in AccurateRip database
Copy OK
Track 9
Filename D:\zzz\09 - W2-2.wav
Pre-gap length 0:00:04.00
Peak level 65.4 %
Extraction speed 7.2 X
Track quality 100.0 %
Test CRC 0B30B191
Copy CRC 0B30B191
Track not present in AccurateRip database
Copy OK
Track 10
Filename D:\zzz\10 - S4 , KW-2.wav
Pre-gap length 0:00:04.00
Peak level 97.2 %
Extraction speed 8.4 X
Track quality 100.0 %
Test CRC D13D627A
Copy CRC D13D627A
Track not present in AccurateRip database
Copy OK
Track 11
Filename D:\zzz\11 - S4-5.wav
Pre-gap length 0:00:04.00
Peak level 80.7 %
Extraction speed 8.6 X
Track quality 100.0 %
Test CRC 08803A0D
Copy CRC 08803A0D
Track not present in AccurateRip database
Copy OK
Track 12
Filename D:\zzz\12 - S4 , TC-2.wav
Pre-gap length 0:00:04.00
Peak level 61.3 %
Extraction speed 7.2 X
Track quality 99.9 %
Test CRC C2E2D842
Copy CRC C2E2D842
Track not present in AccurateRip database
Copy OK
Track 13
Filename D:\zzz\13 - W4 , JE.wav
Pre-gap length 0:00:04.00
Peak level 97.1 %
Extraction speed 9.4 X
Track quality 100.0 %
Test CRC 20D1C724
Copy CRC 20D1C724
Track not present in AccurateRip database
Copy OK
Track 14
Filename D:\zzz\14 - S4 , AH.wav
Pre-gap length 0:00:04.00
Peak level 77.8 %
Extraction speed 9.6 X
Track quality 100.0 %
Test CRC F2792990
Copy CRC F2792990
Track not present in AccurateRip database
Copy OK
None of the tracks are present in the AccurateRip database
No errors occurred
End of status report
==== Log checksum 14A73E000E6461123F82231B715E589B5B134A7AF24B3583DE078FCA12C2B430 ====
 
Содержание индексной карты (.CUE)
REM GENRE "Free Improvisation"
REM DATE 2004
REM DISCID 9C11F00E
REM COMMENT "ExactAudioCopy v1.0b3"
PERFORMER "Various Artists"
TITLE "Free Zone Appleby 2003"
FILE "01 - S4-1.wav" WAVE
TRACK 01 AUDIO
TITLE "S4-1"
PERFORMER "John Edwards, Sylvia Hallett, Marcio Mattos, Philipp Wachsmann"
INDEX 01 00:00:00
TRACK 02 AUDIO
TITLE "S4 / TC-1"
PERFORMER "Tony Coe, John Edwards, Sylvia Hallett, Marcio Mattos, Philipp Wachsmann"
INDEX 00 03:14:21
FILE "02 - S4 , TC-1.wav" WAVE
INDEX 01 00:00:00
TRACK 03 AUDIO
TITLE "S4-2"
PERFORMER "John Edwards, Sylvia Hallett, Marcio Mattos, Philipp Wachsmann"
INDEX 00 04:58:37
FILE "03 - S4-2.wav" WAVE
INDEX 01 00:00:00
TRACK 04 AUDIO
TITLE "W2-1"
PERFORMER "Evan Parker & Kenny Wheeler"
INDEX 00 05:05:53
FILE "04 - W2-1.wav" WAVE
INDEX 01 00:00:00
TRACK 05 AUDIO
TITLE "S4 / KW-1"
PERFORMER "John Edwards, Sylvia Hallett, Marcio Mattos, Philipp Wachsmann, Kenny Wheeler"
INDEX 00 04:55:67
FILE "05 - S4 , KW-1.wav" WAVE
INDEX 01 00:00:00
TRACK 06 AUDIO
TITLE "S4-3"
PERFORMER "John Edwards, Sylvia Hallett, Marcio Mattos, Philipp Wachsmann"
INDEX 00 02:42:33
FILE "06 - S4-3.wav" WAVE
INDEX 01 00:00:00
TRACK 07 AUDIO
TITLE "S4 / EP"
PERFORMER "John Edwards, Sylvia Hallett, Marcio Mattos, Evan Parker, Philipp Wachsmann"
INDEX 00 04:12:06
FILE "07 - S4 , EP.wav" WAVE
INDEX 01 00:00:00
TRACK 08 AUDIO
TITLE "S4-4"
PERFORMER "John Edwards, Sylvia Hallett, Marcio Mattos, Philipp Wachsmann"
INDEX 00 05:17:69
FILE "08 - S4-4.wav" WAVE
INDEX 01 00:00:00
TRACK 09 AUDIO
TITLE "W2-2"
PERFORMER "Tony Coe & Alan Hacker"
INDEX 00 08:13:01
FILE "09 - W2-2.wav" WAVE
INDEX 01 00:00:00
TRACK 10 AUDIO
TITLE "S4 / KW-2"
PERFORMER "John Edwards, Sylvia Hallett, Marcio Mattos, Philipp Wachsmann, Kenny Wheeler"
INDEX 00 03:12:68
FILE "10 - S4 , KW-2.wav" WAVE
INDEX 01 00:00:00
TRACK 11 AUDIO
TITLE "S4-5"
PERFORMER "John Edwards, Sylvia Hallett, Marcio Mattos, Philipp Wachsmann"
INDEX 00 07:47:41
FILE "11 - S4-5.wav" WAVE
INDEX 01 00:00:00
TRACK 12 AUDIO
TITLE "S4 / TC-2"
PERFORMER "Tony Coe, John Edwards, Sylvia Hallett, Marcio Mattos, Philipp Wachsmann"
INDEX 00 06:31:73
FILE "12 - S4 , TC-2.wav" WAVE
INDEX 01 00:00:00
TRACK 13 AUDIO
TITLE "W4 / JE"
PERFORMER "Tony Coe, John Edwards, Alan Hacker, Evan Parker, Kenny Wheeler"
INDEX 00 03:18:65
FILE "13 - W4 , JE.wav" WAVE
INDEX 01 00:00:00
TRACK 14 AUDIO
TITLE "S4 / AH"
PERFORMER "John Edwards, Sylvia Hallett, Alan Hacker, Marcio Mattos, Philipp Wachsmann"
INDEX 00 08:53:22
FILE "14 - S4 , AH.wav" WAVE
INDEX 01 00:00:00
 
Лог проверки качества
d:\>d:\aucdtect -d/-m0 d:\zzz\*.wav
auCDtect: CD records authenticity detector, version 0.8.2
Copyright (c) 2004 Oleg Berngardt. All rights reserved.
Copyright (c) 2004 Alexander Djourik. All rights reserved.
------------------------------------------------------------
Processing file: [01. S4-1.wav]
------------------------------------------------------------
This track looks like CDDA with probability 100%
------------------------------------------------------------
Processing file: [02. S4 - TC-1.wav]
------------------------------------------------------------
This track looks like CDDA with probability 99%
------------------------------------------------------------
Processing file: [03. S4-2.wav]
------------------------------------------------------------
This track looks like CDDA with probability 99%
------------------------------------------------------------
Processing file: [04. W2-1.wav]
------------------------------------------------------------
This track looks like CDDA with probability 100%
------------------------------------------------------------
Processing file: [05. S4 - KW-1.wav]
------------------------------------------------------------
This track looks like CDDA with probability 76%
------------------------------------------------------------
Processing file: [06. S4-3.wav]
------------------------------------------------------------
This track looks like CDDA with probability 100%
------------------------------------------------------------
Processing file: [07. S4 - EP.wav]
------------------------------------------------------------
This track looks like CDDA with probability 100%
------------------------------------------------------------
Processing file: [08. S4-4.wav]
------------------------------------------------------------
This track looks like CDDA with probability 100%
------------------------------------------------------------
Processing file: [09. W2-2.wav]
------------------------------------------------------------
This track looks like CDDA with probability 42%
------------------------------------------------------------
Processing file: [10. S4 - KW-2.wav]
------------------------------------------------------------
This track looks like MPEG with probability 93%
------------------------------------------------------------
Processing file: [11. S4-5.wav]
------------------------------------------------------------
This track looks like CDDA with probability 99%
------------------------------------------------------------
Processing file: [12. S4 - TC-2.wav]
------------------------------------------------------------
This track looks like CDDA with probability 100%
------------------------------------------------------------
Processing file: [13. W4 - JE.wav]
------------------------------------------------------------
This track looks like CDDA with probability 100%
------------------------------------------------------------
Processing file: [14. S4 - AH.wav]
------------------------------------------------------------
This track looks like CDDA with probability 62%
------------------------------------------------------------
Final Conclusion:
------------------------------------------------------------
These tracks looks like CDDA with probability 100%
Доп. информация:
 
Album Info & AMG Review
(Edwards, Hallett, Mattos, Wachsmann) - 1,3,6,8,11
(Coe, Edwards, Hallett, Mattos, Wachsmann) - 2,12
(Parker, Wheeler) - 4
(Edwards, Hallett, Mattos, Wachsmann, Wheeler) - 5,10
(Edwards, Hallett, Mattos, Parker, Wachsmann) - 7
(Coe, Hacker) - 9
(Coe, Edwards, Hacker, Parker, Wheeler) - 13
(Edwards, Hallett, Hacker, Mattos, Wachsmann) - 14
Recorded 27 July 2003 in Ancient Space, St. Michael's Church, Appleby, England
Painting and details from "Seeking Venus - Desert" by Phil Morsman
Photographs by Caroline Forbes
Thanks to Chris Trent, the co-author of the definitive Sun Ra discography "The Earthly Recordings of Sun Ra" (Cadence Jazz Books) who made the recordings.
This release from PSI Records has all the markings of its affiliated and prestigious Emanem label: a stable of (mostly) London-based free-style improvisers who are associated with Emanem; extraordinary musicianship, with all the music freely improvised; and very good recording fidelity. Taken from the Appleby Jazz Festival in 2003, the collection centers around the string quartet of bassist John Edwards, violinists Sylvia Hallett and Philipp Wachsmann, and cellist Marcio Mattos, with eight musicians in the aggregate participating, including the well-known Evan Parker and Kenny Wheeler. The groups are varied, so that there are a couple of duos, and various quartets and quintets. While the quality of the performances is uniformly high, and there are wonderful moments almost everywhere, it is perhaps surprising that the best tracks (such as "S4-1"), that is, those that challenge the listener the most and contain the most variety emotionally, are the ones featuring the core string quartet. The finely executed "S4/TC-2," in which Tony Coe's clarinet melds gently with the hushed cries of the string quartet, presents a distinctly sophisticated and tuneful chamber feel, something that characterizes much of the album. Wheeler is a strong addition to the few tracks on which he plays, focusing on a genre of lyrical free improvisation in which he is most effective. Evan Parker's appearances are slightly disappointing, if only because he appears so infrequently and his anticipated duo with Wheeler on "W2-1" is somewhat of a letdown. Nonetheless, the album does offer the opportunity to hear him in different contexts than usual. While hardly indispensable, Free Zone Appleby offers yet another glimpse into the astonishingly creative world of British free improvisation. - Steve Loewy, AMG
 
Состав
Tony Coe: clarinet
John Edwards: bass
Alan Hacker: clarinet
Sylvia Hallett: violin, voice, sarangi
Marcio Mattos: cello
Evan Parker: tenor saxophone
Philipp Wachsmann: violin, electronics
Kenny Wheeler: flugelhorn
Приватный:
Нет (DHT включён)
Размер:
326.44 Мб (342,301,173 байт) » файлов: 21
Участники:
0 раздают, 0 качают (0 участников всего)
Внешние участники:
2 раздают, 1 качают (3 участников всего) [ Обновить ]
Есть вопросы - пишите личное сообщение пользователю M0p94ok.
05:52
32
Нет комментариев. Ваш будет первым!