Вы используете незарегистрированную версию компонента "Вкладки"!

Поиск

(Avant Jazz, Free Jazz) [CD] Harriet Tubman - I Am a Man (Brandon Ross, Melvin Gibbs, J.T. Lewis) - 1998, FLAC (tracks+.cue), lossless

(Avant Jazz, Free Jazz) [CD] Harriet Tubman - I Am a Man (Brandon Ross, Melvin Gibbs, J.T. Lewis) - 1998, FLAC (tracks+.cue), lossless
Треклист:
Harriet Tubman / I Am a Man
Жанр: Avant Jazz, Free Jazz
Носитель: CD
Год издания: 1998
Издатель (лейбл): Knitting Factory
Номер по каталогу: KFR 228
Страна исполнителя (группы): USA
Аудиокодек: FLAC (*.flac)
Тип рипа: tracks+.cue
Битрейт аудио: lossless
Продолжительность: 00:41:03
Источник (релизер): спасибо Metabaron!!!
Наличие сканов в содержимом раздачи: нет
Треклист:
1 Savannah 10:05
2 Where We Stand 5:23
3 Hards Dry 3:36
4 Adapted 4:25
5 Take Out 0:31
6 High Black Skin 3:45
7 Asiatic Research 3:26
8 Moly 0:27
9 Frozen Fire 5:20
10 Irridescent Shark-Skin Suit 0:32
11 2 Man Army 3:13
12 Re-Adapted 0:39
 
Лог создания рипа
X Lossless Decoder version 20140427 (146.0)
XLD extraction logfile from 2014-04-30 16:23:00 -0600
Harriet Tubman / I am a Man
Used drive : HL-DT-ST DVDRAM GP60NS50 (revision 1.00)
Media type : Pressed CD
Ripper mode : XLD Secure Ripper
Disable audio cache : OK for the drive with a cache less than 1375KiB
Make use of C2 pointers : NO
Read offset correction : 6
Max retry count : 20
Gap status : Analyzed, Appended (except HTOA)
TOC of the extracted CD
Track | Start | Length | Start sector | End sector
---------------------------------------------------------
1 | 00:00:00 | 10:05:32 | 0 | 45406
2 | 10:05:32 | 05:25:28 | 45407 | 69809
3 | 15:30:60 | 03:39:15 | 69810 | 86249
4 | 19:10:00 | 04:28:05 | 86250 | 106354
5 | 23:38:05 | 00:33:40 | 106355 | 108869
6 | 24:11:45 | 03:48:45 | 108870 | 126014
7 | 28:00:15 | 03:26:27 | 126015 | 141491
8 | 31:26:42 | 00:28:38 | 141492 | 143629
9 | 31:55:05 | 05:21:37 | 143630 | 167741
10 | 37:16:42 | 00:32:63 | 167742 | 170204
11 | 37:49:30 | 03:13:52 | 170205 | 184731
AccurateRip Summary (DiscID: 00149b6c-00a65f72-91099f0b)
Track 01 : OK (v1, confidence 1/2)
Track 02 : OK (v1, confidence 1/2)
Track 03 : OK (v1, confidence 1/2)
Track 04 : OK (v1, confidence 1/2)
Track 05 : OK (v1, confidence 1/2)
Track 06 : OK (v1, confidence 1/2)
Track 07 : OK (v1, confidence 1/2)
Track 08 : OK (v1, confidence 1/2)
Track 09 : OK (v1, confidence 1/2)
Track 10 : OK (v1, confidence 1/2)
Track 11 : OK (v1, confidence 1/2)
->All tracks accurately ripped.
All Tracks
Album gain : -4.11 dB
Peak : 1.000000
Statistics
Read error : 0
Jitter error (maybe fixed) : 0
Retry sector count : 0
Damaged sector count : 0
Track 01
Filename : /Users/daviduncorrected/Downloads/Harriet Tubman/01 Harriet Tubman - Savannah.flac
Pre-gap length : 00:02:00
Track gain : -3.61 dB
Peak : 0.998962
CRC32 hash (test run) : E056ECD1
CRC32 hash : E056ECD1
CRC32 hash (skip zero) : A7F64A20
AccurateRip v1 signature : 3EA2AAA8
AccurateRip v2 signature : 8031D999
->Accurately ripped (v1, confidence 1/2)
Statistics
Read error : 0
Jitter error (maybe fixed) : 0
Retry sector count : 0
Damaged sector count : 0
Track 02
Filename : /Users/daviduncorrected/Downloads/Harriet Tubman/02 Harriet Tubman - Where We Stand.flac
Track gain : 0.88 dB
Peak : 0.788696
CRC32 hash (test run) : 8406FADD
CRC32 hash : 8406FADD
CRC32 hash (skip zero) : F83E987B
AccurateRip v1 signature : 5550EBB4
AccurateRip v2 signature : 5DE57188
->Accurately ripped (v1, confidence 1/2)
Statistics
Read error : 0
Jitter error (maybe fixed) : 0
Retry sector count : 0
Damaged sector count : 0
Track 03
Filename : /Users/daviduncorrected/Downloads/Harriet Tubman/03 Harriet Tubman - Hards Dry.flac
Track gain : -3.70 dB
Peak : 0.957733
CRC32 hash (test run) : FA287A14
CRC32 hash : FA287A14
CRC32 hash (skip zero) : FF0B0119
AccurateRip v1 signature : 562A2F2F
AccurateRip v2 signature : 834CEE73
->Accurately ripped (v1, confidence 1/2)
Statistics
Read error : 0
Jitter error (maybe fixed) : 0
Retry sector count : 0
Damaged sector count : 0
Track 04
Filename : /Users/daviduncorrected/Downloads/Harriet Tubman/04 Harriet Tubman - Adapted.flac
Track gain : -3.23 dB
Peak : 0.954285
CRC32 hash (test run) : 92DE57B8
CRC32 hash : 92DE57B8
CRC32 hash (skip zero) : 679D2843
AccurateRip v1 signature : 1CA92583
AccurateRip v2 signature : B36F7F7B
->Accurately ripped (v1, confidence 1/2)
Statistics
Read error : 0
Jitter error (maybe fixed) : 0
Retry sector count : 0
Damaged sector count : 0
Track 05
Filename : /Users/daviduncorrected/Downloads/Harriet Tubman/05 Harriet Tubman - Take Out.flac
Track gain : 1.66 dB
Peak : 0.891510
CRC32 hash (test run) : 5FD1A2A6
CRC32 hash : 5FD1A2A6
CRC32 hash (skip zero) : D54308C6
AccurateRip v1 signature : ADFF2034
AccurateRip v2 signature : 7BD58419
->Accurately ripped (v1, confidence 1/2)
Statistics
Read error : 0
Jitter error (maybe fixed) : 0
Retry sector count : 0
Damaged sector count : 0
Track 06
Filename : /Users/daviduncorrected/Downloads/Harriet Tubman/06 Harriet Tubman - High Black Skin.flac
Track gain : 0.80 dB
Peak : 0.823273
CRC32 hash (test run) : 3835B661
CRC32 hash : 3835B661
CRC32 hash (skip zero) : 0010F54C
AccurateRip v1 signature : 060458DE
AccurateRip v2 signature : 9C1F91EE
->Accurately ripped (v1, confidence 1/2)
Statistics
Read error : 0
Jitter error (maybe fixed) : 0
Retry sector count : 0
Damaged sector count : 0
Track 07
Filename : /Users/daviduncorrected/Downloads/Harriet Tubman/07 Harriet Tubman - Asiatic Research.flac
Track gain : -3.74 dB
Peak : 0.977936
CRC32 hash (test run) : A36D7969
CRC32 hash : A36D7969
CRC32 hash (skip zero) : 2B208A4C
AccurateRip v1 signature : 1D0F8508
AccurateRip v2 signature : 0E440E6E
->Accurately ripped (v1, confidence 1/2)
Statistics
Read error : 0
Jitter error (maybe fixed) : 0
Retry sector count : 0
Damaged sector count : 0
Track 08
Filename : /Users/daviduncorrected/Downloads/Harriet Tubman/08 Harriet Tubman - Moly.flac
Track gain : -1.78 dB
Peak : 0.916321
CRC32 hash (test run) : E16E192B
CRC32 hash : E16E192B
CRC32 hash (skip zero) : 5BA3D35F
AccurateRip v1 signature : EEB33E62
AccurateRip v2 signature : 4BC74AAF
->Accurately ripped (v1, confidence 1/2)
Statistics
Read error : 0
Jitter error (maybe fixed) : 0
Retry sector count : 0
Damaged sector count : 0
Track 09
Filename : /Users/daviduncorrected/Downloads/Harriet Tubman/09 Harriet Tubman - Frozen Fire.flac
Track gain : -6.74 dB
Peak : 0.999023
CRC32 hash (test run) : E7D61628
CRC32 hash : E7D61628
CRC32 hash (skip zero) : E69FFE18
AccurateRip v1 signature : B258CCAC
AccurateRip v2 signature : C9812E42
->Accurately ripped (v1, confidence 1/2)
Statistics
Read error : 0
Jitter error (maybe fixed) : 0
Retry sector count : 0
Damaged sector count : 0
Track 10
Filename : /Users/daviduncorrected/Downloads/Harriet Tubman/10 Harriet Tubman - Iridescent Shark Skin Suit.flac
Track gain : -3.75 dB
Peak : 1.000000
CRC32 hash (test run) : 0DB224F2
CRC32 hash : 0DB224F2
CRC32 hash (skip zero) : 3EDC0FD1
AccurateRip v1 signature : D0AC5092
AccurateRip v2 signature : 5CF9487F
->Accurately ripped (v1, confidence 1/2)
Statistics
Read error : 0
Jitter error (maybe fixed) : 0
Retry sector count : 0
Damaged sector count : 0
Track 11
Filename : /Users/daviduncorrected/Downloads/Harriet Tubman/11 Harriet Tubman - 2 Man Army.flac
Track gain : -2.94 dB
Peak : 0.954926
CRC32 hash (test run) : 2BAF0369
CRC32 hash : 2BAF0369
CRC32 hash (skip zero) : 07866499
AccurateRip v1 signature : 44A5A86C
AccurateRip v2 signature : 0E89C44E
->Accurately ripped (v1, confidence 1/2)
Statistics
Read error : 0
Jitter error (maybe fixed) : 0
Retry sector count : 0
Damaged sector count : 0
No errors occurred
End of status report
-----BEGIN XLD SIGNATURE-----
AbllZ2kS_7hfS0vgXbkiLl.8aRbU2TsicvOjESOA1KJhVK6rKfyWh1JJpzsKw.AlCUBKNbU098gaSkO.YlUUslVdebh5Z4Z7bG.y.Sy
-----END XLD SIGNATURE-----
 
Содержание индексной карты (.CUE)
TITLE "I am a Man"
PERFORMER "Harriet Tubman"
REM GENRE "Jazz"
REM DATE "1998"
REM DISCNUMBER 1
REM TOTALDISCS 1
REM DISCID 91099F0B
REM REPLAYGAIN_ALBUM_GAIN -4.11 dB
REM REPLAYGAIN_ALBUM_PEAK 1.000000
FILE "01 Harriet Tubman - Savannah.flac" WAVE
TRACK 01 AUDIO
TITLE "Savannah"
SONGWRITER "Brandon Ross, Melvin Gibbs, J.T. Lewis"
REM REPLAYGAIN_TRACK_GAIN -3.61 dB
REM REPLAYGAIN_TRACK_PEAK 0.998962
INDEX 01 00:00:00
FILE "02 Harriet Tubman - Where We Stand.flac" WAVE
TRACK 02 AUDIO
TITLE "Where We Stand"
SONGWRITER "Brandon Ross, Melvin Gibbs, J.T. Lewis"
REM REPLAYGAIN_TRACK_GAIN 0.88 dB
REM REPLAYGAIN_TRACK_PEAK 0.788696
INDEX 01 00:00:00
FILE "03 Harriet Tubman - Hards Dry.flac" WAVE
TRACK 03 AUDIO
TITLE "Hards Dry"
SONGWRITER "Brandon Ross, Melvin Gibbs, J.T. Lewis"
REM REPLAYGAIN_TRACK_GAIN -3.70 dB
REM REPLAYGAIN_TRACK_PEAK 0.957733
INDEX 01 00:00:00
FILE "04 Harriet Tubman - Adapted.flac" WAVE
TRACK 04 AUDIO
TITLE "Adapted"
SONGWRITER "Brandon Ross, Melvin Gibbs, J.T. Lewis"
REM REPLAYGAIN_TRACK_GAIN -3.23 dB
REM REPLAYGAIN_TRACK_PEAK 0.954285
INDEX 01 00:00:00
FILE "05 Harriet Tubman - Take Out.flac" WAVE
TRACK 05 AUDIO
TITLE "Take Out"
SONGWRITER "Brandon Ross, Melvin Gibbs, J.T. Lewis"
REM REPLAYGAIN_TRACK_GAIN 1.66 dB
REM REPLAYGAIN_TRACK_PEAK 0.891510
INDEX 01 00:00:00
FILE "06 Harriet Tubman - High Black Skin.flac" WAVE
TRACK 06 AUDIO
TITLE "High Black Skin"
SONGWRITER "Brandon Ross, Melvin Gibbs, J.T. Lewis"
REM REPLAYGAIN_TRACK_GAIN 0.80 dB
REM REPLAYGAIN_TRACK_PEAK 0.823273
INDEX 01 00:00:00
FILE "07 Harriet Tubman - Asiatic Research.flac" WAVE
TRACK 07 AUDIO
TITLE "Asiatic Research"
SONGWRITER "Brandon Ross, Melvin Gibbs, J.T. Lewis"
REM REPLAYGAIN_TRACK_GAIN -3.74 dB
REM REPLAYGAIN_TRACK_PEAK 0.977936
INDEX 01 00:00:00
FILE "08 Harriet Tubman - Moly.flac" WAVE
TRACK 08 AUDIO
TITLE "Moly"
SONGWRITER "Brandon Ross, Melvin Gibbs, J.T. Lewis"
REM REPLAYGAIN_TRACK_GAIN -1.78 dB
REM REPLAYGAIN_TRACK_PEAK 0.916321
INDEX 01 00:00:00
FILE "09 Harriet Tubman - Frozen Fire.flac" WAVE
TRACK 09 AUDIO
TITLE "Frozen Fire"
SONGWRITER "Brandon Ross, Melvin Gibbs, J.T. Lewis"
REM REPLAYGAIN_TRACK_GAIN -6.74 dB
REM REPLAYGAIN_TRACK_PEAK 0.999023
INDEX 01 00:00:00
FILE "10 Harriet Tubman - Iridescent Shark Skin Suit.flac" WAVE
TRACK 10 AUDIO
TITLE "Iridescent Shark Skin Suit"
SONGWRITER "Brandon Ross, Melvin Gibbs, J.T. Lewis"
REM REPLAYGAIN_TRACK_GAIN -3.75 dB
REM REPLAYGAIN_TRACK_PEAK 1.000000
INDEX 01 00:00:00
FILE "11 Harriet Tubman - 2 Man Army.flac" WAVE
TRACK 11 AUDIO
TITLE "2 Man Army"
SONGWRITER "Brandon Ross, Melvin Gibbs, J.T. Lewis"
REM REPLAYGAIN_TRACK_GAIN -2.94 dB
REM REPLAYGAIN_TRACK_PEAK 0.954926
INDEX 01 00:00:00
 
Об исполнителе (группе)
 
Об альбоме (сборнике)
Harriet Tubman is: Brandon Ross guitar; Melvin Gibbs bass and J.T. Lewis drums. Titled: “I Am A Man”, this reviewer will deviate from researching any hidden agenda or subliminal message; however, I can ascertain without reservation that these three “NYC Downtown Scene” veterans have produced an enthusiastic outing which traverses many frontiers.
“Freedom of Expression” is an applied concept put forth within the infamous NYC Downtown Scene. In many instances infusions of punk rock-jazz-chamber-world music and so forth materialize in somewhat unconventional fashion. Needless to say the payoffs are generally captivating and/or peculiar but by and large exciting ! Over the years, New York City’s “Knitting Factory” club (and record label) has served as the principal launching pad for artistic freedom and spawned an era of articulate musical voices who merit widespread recognition. “Harriet Tubman” represents one of three fine new releases from the Knitting Factory record label.
Musically, “I Am A Man” defines the concept of a power trio exploring free jazz but maintaining structure and cohesiveness augmented by a clear sense of a depth. The opener “Savannah” is a powerhouse commencing with Ross delicately tinkering with harmonics and thematic development. Ross consequently picks up steam while vaulting into Hendrix-like crescendos of crunching chords and climactic declarations of atmospheric tone poems. Lewis and Gibbs provide sweeping, throbbing rhythmic textures, aiding and abetting Ross’ “dead on” approach. Melvin Gibbs is one of the finest electric bass players on the planet. He “plays” the bass as opposed to slapping or employing any extensive use of trickery. Gibbs skillfully operates the lower register of his instrument providing an incomparable rock solid groove. “Hards Dry” indicates traces of the 1980’s band “Power Tools” of which Melvin Gibbs was a member. Here, Lewis and Gibbs provide a furious attack, reminiscent of the equally high-octane charge of Gibbs and drummer Ronald Shannon Jackson. Power Tools was a startlingly inventive unit lead by renowned guitarist Bill Frisell. Loud, unabashed and monumental for its time, Harriet Tubman conveys a similar approach. Improvisation is abundant yet the tunes are song orientated and sustaining. “Adapted” is an all out burner. Ross is lyrical and exploits the high register with clever angularity and poise. On “Adapted” J.T. Lewis stretches out behind the kit but never overshadows his bandmates. Gibbs and Lewis are a potent rhythm section behind Ross’ articulations. “Two Man Army” is a forum for Lewis and Gibbs. Lewis’ polyrhythmic drumming supported by Gibbs pumping bass is invigorating and executed in striking precision. Ross, in turn gently caresses the guitar to accentuate meter and pulse. There is a good dose of dialogue and interplay among this band. Clever improvisation combined with raw power and rhythmically charged compositions equates to a multi-dimensional, vivacious affair. Very compelling and highly recommended.
By GLENN ASTARITA
allmusic.com
 
Состав
Brandon Ross guitar;
Melvin Gibbs bass
J.T. Lewis drums
По всем вопросам пишите личное сообщение пользователю M0p94ok.
05:52
250
Нет комментариев. Ваш будет первым!