Вы используете незарегистрированную версию компонента "Вкладки"!

Поиск

(Avant-Garde Jazz / Free Improvisation) [CD] All Included (Thomas Johansson, Martin Kuchen, Mats Aleklint, Jon Rune Strom, Tollef Ostvang) - Reincarnation of a Free Bird - 2012, FLAC (tracks+.cue), lossless

(Avant-Garde Jazz / Free Improvisation) [CD] All Included (Thomas Johansson, Martin Kuchen, Mats Aleklint, Jon Rune Strom, Tollef Ostvang) - Reincarnation of a Free Bird - 2012, FLAC (tracks+.cue), lossless
Треклист:
All Included - Reincarnation of a Free Bird
Жанр: Avant-Garde Jazz / Free Improvisation
Носитель: CD
Страна-производитель диска: Norway
Год издания: 2012
Издатель (лейбл): Stone Floor Records
Номер по каталогу: SFR 001CD
Аудиокодек: FLAC (*.flac)
Тип рипа: tracks+.cue
Битрейт аудио: lossless
Продолжительность: 00:48:43
Источник (релизер): what.cd / спасибо Bezbiletny
Наличие сканов в содержимом раздачи: нет
Треклист:
1. Airstrike (04:47)
2. War In A Child (14:04)
3. Swedish Salsa (07:34)
4. Dactyloscopy (08:26)
5. The Indispensable Warlords (07:03)
6. Reincarnation Of A Free Bird (06:47)
Доп. информация:
Musicians:
Thomas Johansson - trumpet
Martin Küchen - alto saxophone, baritone saxophone
Mats Äleklint - trombone
Jon Rune Strøm - double bass
Tollef Østvang - drums
All Included - Reincarnation of a Free Bird stonefloorrecords.com
All Included - Reincarnation of a Free Bird allaboutjazz.com
Thomas Johansson Official Site
Martin Küchen Official Site
Mats Äleklint Official Site
 
... photo ...

... review ...
The title of All Included's debut refers to one of immortal compositions of bassist Charles Mingus, "Reincarnation of a Lovebird." Following Mingus' legacy, this Swedish-Norwegian quintet's music is based on the American, politically committed, fiery free jazz that originated in the sixties; still, it is unmistakably contemporary. All compositions are well-crafted, wisely arranged and performed passionately.
The strength of this quintet is based on prior collaborations of its musicians. Prolific Swedish saxophonist Martin Küchen towers as the obvious leader of the quintet, having collaborated with fellow Swedish trombonist Mats Äleklint in his Angels and Angels 8 bands on 2008'sEvery Woman is a Tree and 2012's By Way of Deception, both on Clean Feed. Norwegian trumpeter Thomas Johansson, bassist Jon Rune Strøm and drummer Tollef Østvang play together in Friends & Neighbors - whose debut, No Beat Policy (Øra Fonogram, 2011), follows the same aesthetics of All Included - and in the yet-to-record The Way Ahead. Strøm and Østvang are also part of the trio Universal Indians, which just released its own debut,Nihil is Now (Stone Floor, 2012).
Küchen's profoundly political compositions are arresting, with "War in a Child" revolving around his poetic, singing sax solos. Later, Johansson and Äleklint reflect on his tormented narrative, sketched on his alto sax, with commanding solos of their own, while Strøm and Østvang build flexible rhythmic base, all within a supportive and relaxed interplay. Küchen's "Dactyloscopy" is based on urgent rhythmic pattern and enables him to employ some of his extended techniques through the restless interaction. "The Indispensable Warlords" is a painful cry, delivered by Küchen's emotionally charged playing, followed by Johansson and Äleklint.
Other compositions highlight the quintet's passionate energy. Østvang's "Airstrike" and the title composition are muscular, immediate and nervous eruptions of energy, tied loosely around a short theme where all musicians have equal voices. "Swedish Salsa" is free improvisation that patiently gains momentum and power only to dissolve and build again.
Brilliant, inspiring music.
Eyal Hareuveni ~ allaboutjazz.com
 
Лог создания рипа
X Lossless Decoder version 20130720 (144.0)
XLD extraction logfile from 2013-10-28 02:59:34 +0400
All Included / Reincarnation of a Free Bird
Used drive : HL-DT-ST DVDRW GX30N (revision RP09)
Media type : Pressed CD
Ripper mode : XLD Secure Ripper
Disable audio cache : OK for the drive with a cache less than 1375KiB
Make use of C2 pointers : NO
Read offset correction : 6
Max retry count : 100
Gap status : Analyzed, Appended (except HTOA)
TOC of the extracted CD
Track | Start | Length | Start sector | End sector
---------------------------------------------------------
1 | 00:00:00 | 04:47:21 | 0 | 21545
2 | 04:47:21 | 14:04:69 | 21546 | 84914
3 | 18:52:15 | 07:34:26 | 84915 | 118990
4 | 26:26:41 | 08:26:15 | 118991 | 156955
5 | 34:52:56 | 07:03:32 | 156956 | 188712
6 | 41:56:13 | 06:47:62 | 188713 | 219299
AccurateRip Summary
Disc not found in AccurateRip DB.
All Tracks
Album gain : -6.47 dB
Peak : 0.999969
Statistics
Read error : 0
Jitter error (maybe fixed) : 0
Retry sector count : 0
Damaged sector count : 0
Track 01
Filename : /Users/Shared/Grabbed/All Included - 2012 - Reincarnation of a Free Bird [MP3 320]/01 - Airstrike.mp3
/Users/Shared/Grabbed/All Included - 2012 - Reincarnation of a Free Bird [MP3 V0]/01 - Airstrike.mp3
/Users/Shared/Grabbed/All Included - 2012 - Reincarnation of a Free Bird [FLAC]/01 - Airstrike.flac
Pre-gap length : 00:02:00
Track gain : -6.95 dB
Peak : 0.970673
CRC32 hash (test run) : 6A3DFF3F
CRC32 hash : 6A3DFF3F
CRC32 hash (skip zero) : 4868F908
AccurateRip v1 signature : BBF6E90D
AccurateRip v2 signature : 3BAF9458
->Track not present in AccurateRip database.
Statistics
Read error : 0
Jitter error (maybe fixed) : 0
Retry sector count : 0
Damaged sector count : 0
Track 02
Filename : /Users/Shared/Grabbed/All Included - 2012 - Reincarnation of a Free Bird [MP3 320]/02 - War in a Child.mp3
/Users/Shared/Grabbed/All Included - 2012 - Reincarnation of a Free Bird [MP3 V0]/02 - War in a Child.mp3
/Users/Shared/Grabbed/All Included - 2012 - Reincarnation of a Free Bird [FLAC]/02 - War in a Child.flac
Track gain : -6.12 dB
Peak : 0.998108
CRC32 hash (test run) : 13B0687F
CRC32 hash : 13B0687F
CRC32 hash (skip zero) : A8AEA0A7
AccurateRip v1 signature : 9AE84F73
AccurateRip v2 signature : 9ADAD7C0
->Track not present in AccurateRip database.
Statistics
Read error : 0
Jitter error (maybe fixed) : 0
Retry sector count : 0
Damaged sector count : 0
Track 03
Filename : /Users/Shared/Grabbed/All Included - 2012 - Reincarnation of a Free Bird [MP3 320]/03 - Swedish Salsa.mp3
/Users/Shared/Grabbed/All Included - 2012 - Reincarnation of a Free Bird [MP3 V0]/03 - Swedish Salsa.mp3
/Users/Shared/Grabbed/All Included - 2012 - Reincarnation of a Free Bird [FLAC]/03 - Swedish Salsa.flac
Track gain : -6.24 dB
Peak : 0.993439
CRC32 hash (test run) : 352C0D02
CRC32 hash : 352C0D02
CRC32 hash (skip zero) : 134B9987
AccurateRip v1 signature : 7D1626E5
AccurateRip v2 signature : 4F2A1651
->Track not present in AccurateRip database.
Statistics
Read error : 0
Jitter error (maybe fixed) : 0
Retry sector count : 0
Damaged sector count : 0
Track 04
Filename : /Users/Shared/Grabbed/All Included - 2012 - Reincarnation of a Free Bird [MP3 320]/04 - Dactyloscopy.mp3
/Users/Shared/Grabbed/All Included - 2012 - Reincarnation of a Free Bird [MP3 V0]/04 - Dactyloscopy.mp3
/Users/Shared/Grabbed/All Included - 2012 - Reincarnation of a Free Bird [FLAC]/04 - Dactyloscopy.flac
Track gain : -6.25 dB
Peak : 0.999969
CRC32 hash (test run) : 250B173C
CRC32 hash : 250B173C
CRC32 hash (skip zero) : 84BD2CA8
AccurateRip v1 signature : 43A98B30
AccurateRip v2 signature : 2735CF68
->Track not present in AccurateRip database.
Statistics
Read error : 0
Jitter error (maybe fixed) : 0
Retry sector count : 0
Damaged sector count : 0
Track 05
Filename : /Users/Shared/Grabbed/All Included - 2012 - Reincarnation of a Free Bird [MP3 320]/05 - The Indispensable Warlords.mp3
/Users/Shared/Grabbed/All Included - 2012 - Reincarnation of a Free Bird [MP3 V0]/05 - The Indispensable Warlords.mp3
/Users/Shared/Grabbed/All Included - 2012 - Reincarnation of a Free Bird [FLAC]/05 - The Indispensable Warlords.flac
Track gain : -6.11 dB
Peak : 0.950073
CRC32 hash (test run) : 1CE25DCD
CRC32 hash : 1CE25DCD
CRC32 hash (skip zero) : E02C5601
AccurateRip v1 signature : AEEA1D2F
AccurateRip v2 signature : A0D9A7EC
->Track not present in AccurateRip database.
Statistics
Read error : 0
Jitter error (maybe fixed) : 0
Retry sector count : 0
Damaged sector count : 0
Track 06
Filename : /Users/Shared/Grabbed/All Included - 2012 - Reincarnation of a Free Bird [MP3 320]/06 - Reincarnation of a Free Bird.mp3
/Users/Shared/Grabbed/All Included - 2012 - Reincarnation of a Free Bird [MP3 V0]/06 - Reincarnation of a Free Bird.mp3
/Users/Shared/Grabbed/All Included - 2012 - Reincarnation of a Free Bird [FLAC]/06 - Reincarnation of a Free Bird.flac
Track gain : -7.13 dB
Peak : 0.999969
CRC32 hash (test run) : A650A922
CRC32 hash : A650A922
CRC32 hash (skip zero) : C5201791
AccurateRip v1 signature : 9CB5BA4E
AccurateRip v2 signature : DEC1206C
->Track not present in AccurateRip database.
Statistics
Read error : 0
Jitter error (maybe fixed) : 0
Retry sector count : 0
Damaged sector count : 0
No errors occurred
End of status report
-----BEGIN XLD SIGNATURE-----
uG0136_9J7hWgLftVR_rRlXlGAzOxfvnxM5FdG6vTrgBSuq5WUpmQMYMwvoc4RNmJZ5DxvF4be30IrFk2EAT0tvDI4XCkfTLlosogqW
-----END XLD SIGNATURE-----
 
Содержание индексной карты (.CUE)
TITLE "Reincarnation of a Free Bird"
PERFORMER "All Included"
REM GENRE "Free Jazz"
REM DATE "2012"
REM DISCNUMBER 1
REM TOTALDISCS 1
REM DISCID 530B6C06
REM REPLAYGAIN_ALBUM_GAIN -6.47 dB
REM REPLAYGAIN_ALBUM_PEAK 0.999969
FILE "01 - Airstrike.flac" WAVE
TRACK 01 AUDIO
TITLE "Airstrike"
PERFORMER "All Included"
ISRC NOWZK1201010
REM COMMENT "Recorded 2011-04"
REM REPLAYGAIN_TRACK_GAIN -6.95 dB
REM REPLAYGAIN_TRACK_PEAK 0.970673
INDEX 01 00:00:00
FILE "02 - War in a Child.flac" WAVE
TRACK 02 AUDIO
TITLE "War in a Child"
PERFORMER "All Included"
ISRC NOWZK1201020
REM COMMENT "Recorded 2011-04"
REM REPLAYGAIN_TRACK_GAIN -6.12 dB
REM REPLAYGAIN_TRACK_PEAK 0.998108
INDEX 01 00:00:00
FILE "03 - Swedish Salsa.flac" WAVE
TRACK 03 AUDIO
TITLE "Swedish Salsa"
PERFORMER "All Included"
ISRC NOWZK1201030
REM COMMENT "Recorded 2011-04"
REM REPLAYGAIN_TRACK_GAIN -6.24 dB
REM REPLAYGAIN_TRACK_PEAK 0.993439
INDEX 01 00:00:00
FILE "04 - Dactyloscopy.flac" WAVE
TRACK 04 AUDIO
TITLE "Dactyloscopy"
PERFORMER "All Included"
ISRC NOWZK1201040
REM COMMENT "Recorded 2011-04"
REM REPLAYGAIN_TRACK_GAIN -6.25 dB
REM REPLAYGAIN_TRACK_PEAK 0.999969
INDEX 01 00:00:00
FILE "05 - The Indispensable Warlords.flac" WAVE
TRACK 05 AUDIO
TITLE "The Indispensable Warlords"
PERFORMER "All Included"
ISRC NOWZK1201050
REM COMMENT "Recorded 2011-04"
REM REPLAYGAIN_TRACK_GAIN -6.11 dB
REM REPLAYGAIN_TRACK_PEAK 0.950073
INDEX 01 00:00:00
FILE "06 - Reincarnation of a Free Bird.flac" WAVE
TRACK 06 AUDIO
TITLE "Reincarnation of a Free Bird"
PERFORMER "All Included"
ISRC NOWZK1201060
REM COMMENT "Recorded 2011-04"
REM REPLAYGAIN_TRACK_GAIN -7.13 dB
REM REPLAYGAIN_TRACK_PEAK 0.999969
INDEX 01 00:00:00
 
auCDtect Task Manager
-----------------------
DON'T MODIFY THIS FILE
-----------------------
PERFORMER: auCDtect Task Manager, ver. 1.5.1RC6 build 1.5.1.7
Copyright (c) 2008-2010 y-soft. All rights reserved
http://y-soft.org
ANALYZER: auCDtect: CD records authenticity detector, version 0.8.2
Copyright (c) 2004 Oleg Berngardt. All rights reserved.
Copyright (c) 2004 Alexander Djourik. All rights reserved.
FILE: 06 - Reincarnation of a Free Bird.flac
Size: 48545404 Hash: 25E0B6A3EBEA128C233549572BA8B9F5 Accuracy: -m0
Conclusion: CDDA 100%
Signature: 4A9830CCCDD15D2657B9D1BB4553396E72ADEC7D
FILE: 05 - The Indispensable Warlords.flac
Size: 44897922 Hash: 275AA005FDEAE275DF13AAAD7754B4F8 Accuracy: -m0
Conclusion: CDDA 100%
Signature: FE98CA4516B8F6126F3BEC7018AB23779552D8C5
FILE: 04 - Dactyloscopy.flac
Size: 59524713 Hash: C8DAF96D325BAB9F2E4507E91D753EA3 Accuracy: -m0
Conclusion: CDDA 100%
Signature: 00FF4DAC75FA3A4908A3346B9EB83EF4EAE22417
FILE: 03 - Swedish Salsa.flac
Size: 51234728 Hash: 1EDC56415E4D3EDFFBC8B33D912BFA32 Accuracy: -m0
Conclusion: CDDA 100%
Signature: 7A687608E7D2DD3582D169745272514BE3EFBC0E
FILE: 02 - War in a Child.flac
Size: 98902059 Hash: 7AC8147DF04E094C6BABA7AD8E68E52D Accuracy: -m0
Conclusion: CDDA 100%
Signature: B3BCB8CD97F03404594D94AB721C0E56C1B3F140
FILE: 01 - Airstrike.flac
Size: 36677192 Hash: 371181D8D7FA557505145FA9856CCC46 Accuracy: -m0
Conclusion: CDDA 100%
Signature: 5F85490B310D3BA8EE9EA8C8678B16944C3F37E9
... релизы с участием MARTIN KÜCHEN на трекере ...
По всем вопросам пишите личное сообщение пользователю M0p94ok.
05:53
206
Нет комментариев. Ваш будет первым!