Вы используете незарегистрированную версию компонента "Вкладки"!

Поиск

(Emanem, Avant-Garde Jazz, Free Improvisation) [CD] Masashi Harada Condanction Ensemble - Enterprising Mass Of Cilia - 2004, FLAC (tracks+.cue), lossless

(Emanem, Avant-Garde Jazz, Free Improvisation) [CD] Masashi Harada Condanction Ensemble - Enterprising Mass Of Cilia - 2004, FLAC (tracks+.cue), lossless
Треклист:
Masashi Harada Condanction Ensemble / Enterprising Mass Of Cilia
Жанр: Emanem, Avant-Garde Jazz, Free Improvisation
Носитель: CD
Страна-производитель диска: UK
Год издания: 2004
Издатель (лейбл): Emanem
Номер по каталогу: 4108
Страна исполнителя (группы): UK
Аудиокодек: FLAC (*.flac)
Тип рипа: tracks+.cue
Битрейт аудио: lossless
Продолжительность: 66:21
Источник (релизер): свой фирменный диск
Наличие сканов в содержимом раздачи:
Треклист:
1. Spools 7:27
2. Enterprising Mass Of Cilia 12:33
3. Procession Of Echo 3:06
4. Physio-Mechanical Pulse 2:43
5. A Room 3:02
6. Sprouting Self-Similarity 5:05
7. Element Of Resistance 13:46
8. Distance Propitiate 11:47
9. Fleeting Despot 6:33
 
Лог создания рипа
Exact Audio Copy V1.0 beta 3 from 29. August 2011
EAC extraction logfile from 6. October 2014, 20:40
Masashi Harada Condanction Ensemble / Enterprising Mass Of Cilia
Used drive : PIONEER DVD-RW DVR-115D Adapter: 0 ID: 0
Read mode : Secure
Utilize accurate stream : Yes
Defeat audio cache : Yes
Make use of C2 pointers : No
Read offset correction : 48
Overread into Lead-In and Lead-Out : No
Fill up missing offset samples with silence : Yes
Delete leading and trailing silent blocks : No
Null samples used in CRC calculations : Yes
Used interface : Installed external ASPI interface
Gap handling : Appended to previous track
Used output format : User Defined Encoder
Selected bitrate : 768 kBit/s
Quality : High
Add ID3 tag : No
Command line compressor : C:\Program Files\Exact Audio Copy\Flac\flac.exe
Additional command line options : -6 -V -T "ARTIST=%artist%" -T "TITLE=%title%" -T "ALBUM=%albumtitle%" -T "DATE=%year%" -T "TRACKNUMBER=%tracknr%" -T "GENRE=%genre%" -T "COMMENT=%comment%" -T "BAND=%albuminterpret%" -T "COMPOSER=%composer%" %haslyrics%--tag-from-file=LYRICS="%lyricsfile%"%haslyrics% -T "DISCNUMBER=%cdnumber%" -T "TOTALDISCS=%totalcds%" -T "TOTALTRACKS=%numtracks%" %hascover%--picture="%coverfile%"%hascover% %source% -o %dest%
TOC of the extracted CD
Track | Start | Length | Start sector | End sector
---------------------------------------------------------
1 | 0:00.00 | 7:29.34 | 0 | 33708
2 | 7:29.34 | 12:35.05 | 33709 | 90338
3 | 20:04.39 | 3:08.56 | 90339 | 104494
4 | 23:13.20 | 2:45.33 | 104495 | 116902
5 | 25:58.53 | 3:04.38 | 116903 | 130740
6 | 29:03.16 | 5:07.12 | 130741 | 153777
7 | 34:10.28 | 13:47.56 | 153778 | 215858
8 | 47:58.09 | 11:48.66 | 215859 | 269024
9 | 59:47.00 | 6:33.49 | 269025 | 298548
Track 1
Filename D:\zzz\01 - Spools.wav
Pre-gap length 0:00:02.00
Peak level 97.1 %
Extraction speed 4.7 X
Track quality 100.0 %
Test CRC 3B5F339B
Copy CRC 3B5F339B
Track not present in AccurateRip database
Copy OK
Track 2
Filename D:\zzz\02 - Enterprising Mass Of Cilia.wav
Pre-gap length 0:00:02.09
Peak level 97.2 %
Extraction speed 5.9 X
Track quality 100.0 %
Test CRC AB244788
Copy CRC AB244788
Track not present in AccurateRip database
Copy OK
Track 3
Filename D:\zzz\03 - Procession Of Echo.wav
Pre-gap length 0:00:02.10
Peak level 97.1 %
Extraction speed 5.7 X
Track quality 100.0 %
Test CRC B6563C38
Copy CRC B6563C38
Track not present in AccurateRip database
Copy OK
Track 4
Filename D:\zzz\04 - Physio-Mechanical Pulse.wav
Pre-gap length 0:00:02.35
Peak level 36.1 %
Extraction speed 5.8 X
Track quality 100.0 %
Test CRC 9498461C
Copy CRC 9498461C
Track not present in AccurateRip database
Copy OK
Track 5
Filename D:\zzz\05 - A Room.wav
Pre-gap length 0:00:02.05
Peak level 97.1 %
Extraction speed 6.1 X
Track quality 100.0 %
Test CRC F26EDAD5
Copy CRC F26EDAD5
Track not present in AccurateRip database
Copy OK
Track 6
Filename D:\zzz\06 - Sprouting Self-Similarity.wav
Pre-gap length 0:00:02.00
Peak level 84.1 %
Extraction speed 6.8 X
Track quality 100.0 %
Test CRC 4D4BA17C
Copy CRC 4D4BA17C
Track not present in AccurateRip database
Copy OK
Track 7
Filename D:\zzz\07 - Element Of Resistance.wav
Pre-gap length 0:00:02.00
Peak level 97.2 %
Extraction speed 7.9 X
Track quality 100.0 %
Test CRC 451C8840
Copy CRC 451C8840
Track not present in AccurateRip database
Copy OK
Track 8
Filename D:\zzz\08 - Distance Propitiate.wav
Pre-gap length 0:00:01.20
Peak level 97.1 %
Extraction speed 8.5 X
Track quality 100.0 %
Test CRC 9518541D
Copy CRC 9518541D
Track not present in AccurateRip database
Copy OK
Track 9
Filename D:\zzz\09 - Fleeting Despot.wav
Pre-gap length 0:00:01.38
Peak level 97.2 %
Extraction speed 1.3 X
Track quality 100.0 %
Test CRC 9C9CC56E
Copy CRC 9C9CC56E
Track not present in AccurateRip database
Copy OK
None of the tracks are present in the AccurateRip database
No errors occurred
End of status report
==== Log checksum 27928699AFDC54766363BFC34B7DC740C42AFFDA7A4B5FA89BAF15AD81E9CE33 ====
 
Содержание индексной карты (.CUE)
REM GENRE "Free Improvisation"
REM DATE 2004
REM DISCID 780F8C09
REM COMMENT "ExactAudioCopy v1.0b3"
PERFORMER "Masashi Harada Condanction Ensemble"
TITLE "Enterprising Mass Of Cilia"
FILE "01 - Spools.wav" WAVE
TRACK 01 AUDIO
TITLE "Spools"
PERFORMER "Masashi Harada Condanction Ensemble"
INDEX 01 00:00:00
TRACK 02 AUDIO
TITLE "Enterprising Mass Of Cilia"
PERFORMER "Masashi Harada Condanction Ensemble"
INDEX 00 07:27:25
FILE "02 - Enterprising Mass Of Cilia.wav" WAVE
INDEX 01 00:00:00
TRACK 03 AUDIO
TITLE "Procession Of Echo"
PERFORMER "Masashi Harada Condanction Ensemble"
INDEX 00 12:32:70
FILE "03 - Procession Of Echo.wav" WAVE
INDEX 01 00:00:00
TRACK 04 AUDIO
TITLE "Physio-Mechanical Pulse"
PERFORMER "Masashi Harada Condanction Ensemble"
INDEX 00 03:06:21
FILE "04 - Physio-Mechanical Pulse.wav" WAVE
INDEX 01 00:00:00
TRACK 05 AUDIO
TITLE "A Room"
PERFORMER "Masashi Harada Condanction Ensemble"
INDEX 00 02:43:28
FILE "05 - A Room.wav" WAVE
INDEX 01 00:00:00
TRACK 06 AUDIO
TITLE "Sprouting Self-Similarity"
PERFORMER "Masashi Harada Condanction Ensemble"
INDEX 00 03:02:38
FILE "06 - Sprouting Self-Similarity.wav" WAVE
INDEX 01 00:00:00
TRACK 07 AUDIO
TITLE "Element Of Resistance"
PERFORMER "Masashi Harada Condanction Ensemble"
INDEX 00 05:05:12
FILE "07 - Element Of Resistance.wav" WAVE
INDEX 01 00:00:00
TRACK 08 AUDIO
TITLE "Distance Propitiate"
PERFORMER "Masashi Harada Condanction Ensemble"
INDEX 00 13:46:36
FILE "08 - Distance Propitiate.wav" WAVE
INDEX 01 00:00:00
TRACK 09 AUDIO
TITLE "Fleeting Despot"
PERFORMER "Masashi Harada Condanction Ensemble"
INDEX 00 11:47:28
FILE "09 - Fleeting Despot.wav" WAVE
INDEX 01 00:00:00
 
Лог проверки качества
d:\>d:\aucdtect -d/-m0 d:\zzz\*.wav
auCDtect: CD records authenticity detector, version 0.8.2
Copyright (c) 2004 Oleg Berngardt. All rights reserved.
Copyright (c) 2004 Alexander Djourik. All rights reserved.
------------------------------------------------------------
Processing file: [01. Spools.wav]
------------------------------------------------------------
This track looks like CDDA with probability 99%
------------------------------------------------------------
Processing file: [02. Enterprising Mass Of Cilia.wav]
------------------------------------------------------------
This track looks like CDDA with probability 100%
------------------------------------------------------------
Processing file: [03. Procession Of Echo.wav]
------------------------------------------------------------
This track looks like CDDA with probability 100%
------------------------------------------------------------
Processing file: [04. Physio-Mechanical Pulse.wav]
------------------------------------------------------------
This track looks like MPEG with probability 91%
------------------------------------------------------------
Processing file: [05. A Room.wav]
------------------------------------------------------------
This track looks like CDDA with probability 100%
------------------------------------------------------------
Processing file: [06. Sprouting Self-Similarity.wav]
------------------------------------------------------------
This track looks like CDDA with probability 43%
------------------------------------------------------------
Processing file: [07. Element Of Resistance.wav]
------------------------------------------------------------
This track looks like CDDA with probability 54%
------------------------------------------------------------
Processing file: [08. Distance Propitiate.wav]
------------------------------------------------------------
This track looks like MPEG with probability 92%
------------------------------------------------------------
Processing file: [09. Fleeting Despot.wav]
------------------------------------------------------------
This track looks like CDDA with probability 100%
------------------------------------------------------------
Final Conclusion:
------------------------------------------------------------
These tracks looks like CDDA with probability 100%
Доп. информация:
 
Album Info & AMG Review
All music by Masashi Harada
Digital recording by Michael Caglianone, Boston (7A West Studio), 2001 March 17
Mastered and designed by Martin Davidson
Ice paintings and photographs by Masashi Harada
Liner notes: Masashi Harada (2003)
Recorded 15 months after Enter the Continent, the Masashi Harada Condanction Ensemble's second session for the British label Emanem proposes further realizations of its leader's concept of "condanction" -- conducting an improvising ensemble through dance -- with a partly revised lineup. Nmperign's Greg Kelley (trumpet) and Bhob Rainey (soprano sax) are still there, along with bassist Mike Bullock and violinist Aleta Cole. String players Fred Vider, Glynis Lomon and Vic Rawlings, Jonathan Vincent (accordion), James Coleman (theremin) and Tatsuya Nakatani (percussion) fill the vacant chairs. Once again, the compact disc medium brings us only the audio results of the experience. The process itself, which resides in Masashi Harada's bodily interaction with the musicians (more than a visual performance element but a channel of communication, a way of playing), remains hidden and the listener is left to his or her own imagination to picture Harada's condanction. At first, the music can bring to mind the London Improvisers Orchestra. Each piece evolves with a life of its own, alternating between ensemble surges and individual breakaways, delicate textural techniques and rambunctious free for alls. The album begins and ends with a few mid-length ensemble pieces (between six and 14 minutes long) featuring the riveting group dynamics and endless creativity of these (mostly young) improvisers. The middle-third of the CD consists of short pieces for sub-groups, including features for Vincent and Rawlings, where Harada's conduction focuses on something more lyrical. Kelley and Coleman shine throughout, their contributions responsible for some of the most memorable moments on the disc. On the other hand, one wishes a second percussionist would have been present, as Nakatani is unable to provide the level of activity some pieces would call for (in "Distance Propitiate," for instance). This is a good second opus, not particularly better or weaker than the first. - Francois Couture, AMG
 
Состав
Greg Kelley: trumpet
Bhob Rainey: soprano saxophone
Aleta Cole: violin
Frederic Viger: viola
Glynis Lomon: cello
Vic Rawlings: cello & electronics
Mike Bullock: double bass
Jonathan Vincent: accordion
James Coleman: theremin
Tatsuya Nakatani: percussion
Masashi Harada: condanction, voice
По всем вопросам пишите личное сообщение пользователю M0p94ok.
05:51
261
Нет комментариев. Ваш будет первым!