Вы используете незарегистрированную версию компонента "Вкладки"!

Поиск

(Post Bop/Modern Creative) Bill Frisell - This Land - 1994, APE (image+.cue), lossless

(Post Bop/Modern Creative) Bill Frisell - This Land - 1994, APE (image+.cue), lossless
Треклист:
Bill Frisell - This Land
Жанр: Post Bop/Modern Creative
Год выпуска диска: 1994
Производитель диска: EU / Nonesuch rec.
Аудио кодек: APE
Тип рипа: image+.cue
Битрейт аудио: lossless
Продолжительность: 65:56
Трэклист:
1 Is It Sweet? (5:05)
2 Strange Meeting (6:18)
3 Jimmy Carter (Part 1) (2:03)
4 Jimmy Carter (Part 2) (5:22)
5 This Land (3:11)
6 Dog Eat Dog (4:17)
7 Amarillo Barbados (4:13)
8 Monica Jane (4:59)
9 Resistor (6:56)
10 Julius Hemphill (9:53)
11 Unscientific Americans (0:46)
12 Cartoon (6:22)
13 Rag (4:18)
14 Tag (1:45)
Доп. информация:
Bass [Electric], Bass [Acoustic] - Kermit Driscoll
Clarinet, Clarinet [Bass] - Don Byron
Drums - Joey Baron
Guitar - Bill Frisell
Saxophone [Alto] - Billy Drewes
Trombone - Curtis Fowlkes
 
Отчёт EAC
Exact Audio Copy V0.99 prebeta 4 from 23. January 2008
Отчёт EAC об извлечении, выполненном 1. мая 2009, 20:40
Bill Frisell / This Land
Дисковод: Optiarc DVD RW AD-7543A Adapter: 0 ID: 0
Режим чтения : Достоверность
Использование точного потока : Да
Отключение кэша аудио : Да
Использование указателей C2 : Нет
Коррекция смещения при чтении : 48
Способность читать области Lead-in и Lead-out : Нет
Заполнение пропущенных сэмплов тишиной : Да
Удаление блоков с тишиной в начале и конце : Нет
При вычислениях CRC использовались нулевые сэмплы : Да
Интерфейс : Встроенный Win32-интерфейс для Win NT/2000
Выходной формат : Внутренние WAV-операции
Формат сэмплов : 44.100 Гц; 16 бит; стерео
TOC извлечённого CD
Трек | Старт | Длительность | Начальный сектор | Конечный сектор
---------------------------------------------------------------------
1 | 0:00.32 | 5:08.51 | 32 | 23182
2 | 5:09.08 | 6:21.40 | 23183 | 51797
3 | 11:30.48 | 2:05.52 | 51798 | 61224
4 | 13:36.25 | 5:22.00 | 61225 | 85374
5 | 18:58.25 | 3:12.45 | 85375 | 99819
6 | 22:10.70 | 4:20.48 | 99820 | 119367
7 | 26:31.43 | 4:14.52 | 119368 | 138469
8 | 30:46.20 | 5:01.43 | 138470 | 161087
9 | 35:47.63 | 6:57.55 | 161088 | 192417
10 | 42:45.43 | 9:51.17 | 192418 | 236759
11 | 52:36.60 | 0:47.65 | 236760 | 240349
12 | 53:24.50 | 6:26.20 | 240350 | 269319
13 | 59:50.70 | 4:21.15 | 269320 | 288909
14 | 64:12.10 | 1:44.07 | 288910 | 296716
Характеристики диапазона извлечения и сообщения об ошибках
Выбранный диапазон
Имя файла F:\Torrent\Новая папка\Bill Frisell-This Land\Bill Frisell - This Land.wav
Пиковый уровень 100.0 %
Качество диапазона 99.9 %
CRC копии 8B35B1F1
Копирование... OK
Ошибок не произошло
AccurateRip: сводка
Трек 1 нет в базе данных
Трек 2 нет в базе данных
Трек 3 нет в базе данных
Трек 4 нет в базе данных
Трек 5 нет в базе данных
Трек 6 нет в базе данных
Трек 7 нет в базе данных
Трек 8 нет в базе данных
Трек 9 нет в базе данных
Трек 10 нет в базе данных
Трек 11 нет в базе данных
Трек 12 нет в базе данных
Трек 13 нет в базе данных
Трек 14 нет в базе данных
Ни одного трека нет в базе AccurateRip
Конец отчёта
Заранее пожалуйста
Any questions -> support@pro-jazz.com. По всем вопросам пишите -> support@pro-jazz.com
10:35
226
Нет комментариев. Ваш будет первым!