Вы используете незарегистрированную версию компонента "Вкладки"!

Поиск

(Post Bop/Modern Creative) Bill Frisell - Blues Dream - 2001, APE (image+.cue), lossless

(Post Bop/Modern Creative) Bill Frisell - Blues Dream - 2001, APE (image+.cue), lossless
Треклист:
Bill Frisell - Blues Dream
Жанр: Post Bop/Modern Creative
Год выпуска диска: 2001
Производитель диска: EU
Аудио кодек: APE
Тип рипа: image+.cue
Битрейт аудио: lossless
Продолжительность: 62:07
Трэклист:
01 Blues Dream
02 Ron Carter
03 Pretty Flowers Were Made For Blooming
04 Pretty Stars Were Made To Shine
05 Where Do We Go?
06 Like Dreamers Do (Part One)
07 Like Dreamers Do (Part Two)
08 Outlaws
09 What Do We Do?
10 Episode
11 Soul Merchant
12 Greg Leisz
13 The Tractor
14 Fifty Years
15 Slow Dance
16 Things Will Never Be The Same
17 Dream On
18 Blues Dream (Reprise)
Доп. информация:
Bass - Kenny Wollesen
Drums, Percussion - Kenny Wollesen
Electric Guitar, Acoustic Guitar - Bill Frisell
Saxophone [Alto] - David Piltch
Steel Guitar [Pedal, Lap, National], Resonator Guitar [Scheerhorn], Mandolin - Greg Leisz
Trombone - Curtis Fowlkes
Trumpet - Ron Miles
 
Отчёт EAC
Exact Audio Copy V0.99 prebeta 4 from 23. January 2008
Отчёт EAC об извлечении, выполненном 1. мая 2009, 21:15
Bill Frisell / Blues Dream
Дисковод: Optiarc DVD RW AD-7543A Adapter: 0 ID: 0
Режим чтения : Достоверность
Использование точного потока : Да
Отключение кэша аудио : Да
Использование указателей C2 : Нет
Коррекция смещения при чтении : 48
Способность читать области Lead-in и Lead-out : Нет
Заполнение пропущенных сэмплов тишиной : Да
Удаление блоков с тишиной в начале и конце : Нет
При вычислениях CRC использовались нулевые сэмплы : Да
Интерфейс : Встроенный Win32-интерфейс для Win NT/2000
Выходной формат : Внутренние WAV-операции
Формат сэмплов : 44.100 Гц; 16 бит; стерео
TOC извлечённого CD
Трек | Старт | Длительность | Начальный сектор | Конечный сектор
---------------------------------------------------------------------
1 | 0:00.32 | 2:31.43 | 32 | 11399
2 | 2:32.00 | 6:45.30 | 11400 | 41804
3 | 9:17.30 | 3:20.62 | 41805 | 56866
4 | 12:38.17 | 1:41.10 | 56867 | 64451
5 | 14:19.27 | 5:21.60 | 64452 | 88586
6 | 19:41.12 | 1:34.25 | 88587 | 95661
7 | 21:15.37 | 2:37.60 | 95662 | 107496
8 | 23:53.22 | 4:19.03 | 107497 | 126924
9 | 28:12.25 | 7:08.52 | 126925 | 159076
10 | 35:21.02 | 0:49.23 | 159077 | 162774
11 | 36:10.25 | 2:42.72 | 162775 | 174996
12 | 38:53.22 | 6:14.20 | 174997 | 203066
13 | 45:07.42 | 2:27.55 | 203067 | 214146
14 | 47:35.22 | 1:31.05 | 214147 | 220976
15 | 49:06.27 | 3:11.33 | 220977 | 235334
16 | 52:17.60 | 4:49.70 | 235335 | 257079
17 | 57:07.55 | 3:06.05 | 257080 | 271034
18 | 60:13.60 | 1:53.37 | 271035 | 279546
Характеристики диапазона извлечения и сообщения об ошибках
Выбранный диапазон
Имя файла F:\Torrent\Новая папка\Bill Frisell-Blues Dream\Bill Frisell - Blues Dream.wav
Пиковый уровень 100.0 %
Качество диапазона 99.9 %
CRC копии 2BF8A7AD
Копирование... OK
Ошибок не произошло
AccurateRip: сводка
Трек 1 точность не определена (достоверность 24) [16C4E348], AccurateRip вернул [3AA908EE]
Трек 2 точность не определена (достоверность 23) [B9DB447D], AccurateRip вернул [9A242E71]
Трек 3 точность не определена (достоверность 24) [38968F5F], AccurateRip вернул [FD85D093]
Трек 4 точность не определена (достоверность 24) [D870EA97], AccurateRip вернул [BCF7BE0D]
Трек 5 точность не определена (достоверность 24) [19E9FDF2], AccurateRip вернул [0646CA12]
Трек 6 точность не определена (достоверность 24) [31C3048A], AccurateRip вернул [B82E9AE4]
Трек 7 точность не определена (достоверность 24) [DBC6AC85], AccurateRip вернул [09802CB2]
Трек 8 точность не определена (достоверность 24) [68DCA6EF], AccurateRip вернул [0BB2A173]
Трек 9 точность не определена (достоверность 24) [32C33D27], AccurateRip вернул [1879DF2B]
Трек 10 точность не определена (достоверность 23) [A3700114], AccurateRip вернул [B76877A5]
Трек 11 точность не определена (достоверность 23) [E5F4E366], AccurateRip вернул [4E170799]
Трек 12 точность не определена (достоверность 24) [B05189A7], AccurateRip вернул [950FFE49]
Трек 13 точность не определена (достоверность 23) [526EDB56], AccurateRip вернул [F385DCDF]
Трек 14 точность не определена (достоверность 24) [87F795C2], AccurateRip вернул [F2B7065A]
Трек 15 точность не определена (достоверность 22) [0F71D58A], AccurateRip вернул [8E8A2DF2]
Трек 16 точность не определена (достоверность 24) [1AE4796F], AccurateRip вернул [2D97BCE3]
Трек 17 точность не определена (достоверность 24) [7C1D5157], AccurateRip вернул [6DBEA2FD]
Трек 18 точность не определена (достоверность 24) [BBA42E9C], AccurateRip вернул [36F74AA1]
Ни один трек не прошёл проверки на точность
В вашей базе может быть иной вариант штамповки диска
Конец отчёта
Any questions -> support@pro-jazz.com. По всем вопросам пишите -> support@pro-jazz.com
10:36
229
Нет комментариев. Ваш будет первым!