Вы используете незарегистрированную версию компонента "Вкладки"!

Поиск

(Flute, Modern Creative) Flutistry (Henry Threadgill, James Newton, Pedro Eustache, Melecio Magdaluyo) - Flute Force Four - 1997, FLAC (image+.cue), lossless

(Flute, Modern Creative) Flutistry (Henry Threadgill, James Newton, Pedro Eustache, Melecio Magdaluyo) - Flute Force Four - 1997, FLAC (image+.cue), lossless
Треклист:
Flutistry - Flute Force Four
Жанр: Flute, Modern Creative
Год выпуска диска: 1997
Производитель диска: Italy (Black Saint)
Аудио кодек: FLAC
Тип рипа: image+.cue
Битрейт аудио: lossless
Продолжительность: 44:15
Трэклист:
1 T.B.A. 5:39
2 INTERSECTION 6:53
3 LUAP NOSEBOR 9:04
4 HYMN TO WRIGHT REVEREND 6:45
5 PASEO DEL MAR 5:56
6 FIGWIG 9:56
Доп. информация:
Увидел Matthias Ziegler - Uakti и вспомнил про красивейший альбом флейт квартета.
Этакий World Flute Quartet
Для любителей импровизационной флейты я добавил в раздачу малюсенький сюрприз - напоминание.
Line Up:
Henry Threadgill, Flute, Bass Flute
James Newton, Flute, Alto Flute, Bass Flute
Pedro Eustache, flute, Alto Flute, Bass Flute, Piccolo Flute
Melecio Magdaluyo, Flute, Alto Flute
 
неизвестный автор из kzsu.stanford.edu
Beautifully abstract flute music. Thinks birds floating and gliding in the sky. Think Eric Dolphy blowing on a desolate beach. Four extraordinary musicians joined together as one. The bass and alto flute provide deep colors and harmonies.
 
ссылка на статью о Henry Threadgill
 
еас лог
Exact Audio Copy V0.99 prebeta 3 from 28. July 2007
EAC extraction logfile from 1. May 2009, 15:01
Flute Force Four / Flutistry
Used drive : HL-DT-STDVDRAM GSA-4165B Adapter: 1 ID: 0
Read mode : Secure
Utilize accurate stream : Yes
Defeat audio cache : Yes
Make use of C2 pointers : No
Read offset correction : 667
Overread into Lead-In and Lead-Out : No
Fill up missing offset samples with silence : Yes
Delete leading and trailing silent blocks : No
Null samples used in CRC calculations : Yes
Used interface : Native Win32 interface for Win NT & 2000
Used output format : User Defined Encoder
Selected bitrate : 768 kBit/s
Quality : High
Add ID3 tag : No
Command line compressor : C:\Program Files\Exact Audio Copy\FLAC\FLAC.EXE
Additional command line options : -6 -V -T "ARTIST=%a" -T "TITLE=%t" -T "ALBUM=%g" -T "DATE=%y" -T "TRACKNUMBER=%n" -T "GENRE=%m" -T "COMMENT=%e" %s -o %d
TOC of the extracted CD
Track | Start | Length | Start sector | End sector
---------------------------------------------------------
1 | 0:00.32 | 5:39.00 | 32 | 25456
2 | 5:39.32 | 6:53.25 | 25457 | 56456
3 | 12:32.57 | 9:04.25 | 56457 | 97281
4 | 21:37.07 | 6:45.50 | 97282 | 127706
5 | 28:22.57 | 5:56.50 | 127707 | 154456
6 | 34:19.32 | 9:56.00 | 154457 | 199156
Range status and errors
Selected range
Filename F:\DATA\Music\Torrent\0_My_Music\Flutistry - Flute Force Four (1997)\Flute Force Four - Flutistry.wav
Peak level 96.3 %
Range quality 100.0 %
Copy CRC 82A48F98
Copy OK
No errors occurred
AccurateRip summary
Track 1 not present in database
Track 2 not present in database
Track 3 not present in database
Track 4 not present in database
Track 5 not present in database
Track 6 not present in database
None of the tracks are present in the AccurateRip database
End of status report
Any questions -> support@pro-jazz.com. По всем вопросам пишите -> support@pro-jazz.com
10:34
173
Нет комментариев. Ваш будет первым!