Поиск

(Post-Bop) The Dollar Brand Trio - Duke Ellington Presents The Dollar Brand Trio - 1997, FLAC (tracks+.cue), lossless

(Post-Bop) The Dollar Brand Trio - Duke Ellington Presents The Dollar Brand Trio - 1997, FLAC (tracks+.cue), lossless
Треклист:
The Dollar Brand Trio - Duke Ellington Presents The Dollar Brand Trio
Жанр: Post-Bop
Год выпуска диска: 1997
Производитель диска: USA (Warner Bros)
Аудио кодек: FLAC
Тип рипа: tracks+.cue
Битрейт аудио: lossless
Продолжительность: 33'14
Трэклист:
1. Dollar's Dance
2. Kippi
3. Brillant Corners
4. Jumping Rope
5. Ubu Suku
6. The Stride
Pianist Abdullah Ibrahim(Dollar Brand),
bassist Johnny Gertze,
drummer Makaya Ntshoko.
Доп. информация:
 
Отчет ЕАС
EAC extraction logfile from 9. May 2006, 18:15 for CD
The Dollar Brand Trio / Duke Ellington Presents The Dollar Brand Trio
Used drive : LITE-ON DVDRW SOHW-1633S Adapter: 0 ID: 0
Read mode : Secure with NO C2, accurate stream, disable cache
Read offset correction : 12
Overread into Lead-In and Lead-Out : No
Used output format : Internal WAV Routines
44.100 Hz; 16 Bit; Stereo
Other options :
Fill up missing offset samples with silence : Yes
Delete leading and trailing silent blocks : No
Installed external ASPI interface
Track 1
Filename D:\FLAC\The Dollar Brand Trio - Duke Ellington Presents The Dollar Brand Trio (1964) [FLAC]\01 - Dollar's Dance.wav
Pre-gap length 0:00:02.00
Peak level 94.1 %
Track quality 100.0 %
Test CRC 583B2C0A
Copy CRC 583B2C0A
Copy OK
Track 2
Filename D:\FLAC\The Dollar Brand Trio - Duke Ellington Presents The Dollar Brand Trio (1964) [FLAC]\02 - Kippi.wav
Pre-gap length 0:00:03.42
Peak level 88.5 %
Track quality 100.0 %
Test CRC 31DFA90C
Copy CRC 31DFA90C
Copy OK
Track 3
Filename D:\FLAC\The Dollar Brand Trio - Duke Ellington Presents The Dollar Brand Trio (1964) [FLAC]\03 - Brilliant Corners.wav
Pre-gap length 0:00:03.44
Peak level 92.3 %
Track quality 100.0 %
Test CRC 862A2675
Copy CRC 862A2675
Copy OK
Track 4
Filename D:\FLAC\The Dollar Brand Trio - Duke Ellington Presents The Dollar Brand Trio (1964) [FLAC]\04 - Jumping Rope.wav
Pre-gap length 0:00:02.97
Peak level 91.9 %
Track quality 100.0 %
Test CRC FDA7F63E
Copy CRC FDA7F63E
Copy OK
Track 5
Filename D:\FLAC\The Dollar Brand Trio - Duke Ellington Presents The Dollar Brand Trio (1964) [FLAC]\05 - Ubu Suku.wav
Pre-gap length 0:00:03.20
Peak level 88.8 %
Track quality 100.0 %
Test CRC 746B1EBB
Copy CRC 746B1EBB
Copy OK
Track 6
Filename D:\FLAC\The Dollar Brand Trio - Duke Ellington Presents The Dollar Brand Trio (1964) [FLAC]\06 - The Stride.wav
Pre-gap length 0:00:03.73
Peak level 92.7 %
Track quality 100.0 %
Test CRC 9D965628
Copy CRC 9D965628
Copy OK
No errors occured
End of status report
Download available for power users only.
07:01
171
Нет комментариев. Ваш будет первым!