Поиск

(World Fusion) TakeDake With Neptune - Asian Roots - 1998, FLAC (tracks+.cue), lossless

(World Fusion) TakeDake With Neptune - Asian Roots - 1998, FLAC (tracks+.cue), lossless
Треклист:
TakeDake With Neptune - Asian Roots
Жанр: World Fusion
Год выпуска диска: 1998
Производитель диска: Nippon Columbia (Denon)
Аудио кодек: FLAC
Тип рипа: tracks+.cue
Продолжительность: 57.40
Трэклист:
1. Ocean Motion
2. In The Holow
3. Jegoging
4. Java
5. Korea Idea
6. Japanese Roots
7. Five Nodes
8. Uduboo
9. Parting Paths
10. Sky and Sand Way
11. Angklung Journey
12. Angklung Journey
Доп. информация: Отчет ЕАС:
 
скрытый текст
EAC extraction logfile from 3. July 2009, 19:45
TakeDake with Neptune / Asian Roots
Used drive : MATSHITADVD-RAM UJ-850S Adapter: 0 ID: 0
Read mode : Secure
Utilize accurate stream : Yes
Defeat audio cache : Yes
Make use of C2 pointers : No
Read offset correction : 102
Overread into Lead-In and Lead-Out : No
Fill up missing offset samples with silence : Yes
Delete leading and trailing silent blocks : No
Null samples used in CRC calculations : Yes
Used interface : Installed external ASPI interface
Gap handling : Appended to previous track
Used output format : User Defined Encoder
Selected bitrate : 128 kBit/s
Quality : High
Add ID3 tag : No
Command line compressor : C:\Program Files\Exact Audio Copy\Flac\flac.exe
Additional command line options : -8 -V -T "ARTIST=%a" -T "TITLE=%t" -T "ALBUM=%g" -T "DATE=%y" -T "TRACKNUMBER=%n" -T "GENRE=%m" -T "COMMENT=EAC FLAC -8" %s
TOC of the extracted CD
Track | Start | Length | Start sector | End sector
---------------------------------------------------------
1 | 0:00.00 | 6:04.55 | 0 | 27354
2 | 6:04.55 | 5:53.15 | 27355 | 53844
3 | 11:57.70 | 3:57.73 | 53845 | 71692
4 | 15:55.68 | 5:59.27 | 71693 | 98644
5 | 21:55.20 | 4:48.10 | 98645 | 120254
6 | 26:43.30 | 7:37.10 | 120255 | 154539
7 | 34:20.40 | 7:43.30 | 154540 | 189294
8 | 42:03.70 | 5:48.40 | 189295 | 215434
9 | 47:52.35 | 2:28.45 | 215435 | 226579
10 | 50:21.05 | 4:11.18 | 226580 | 245422
11 | 54:32.23 | 1:56.32 | 245423 | 254154
12 | 56:28.55 | 2:01.13 | 254155 | 263242
Track 1
Filename D:\Obmen\Torrent\Музыка\Flac\TakeDake with Neptune\01. TakeDake with Neptune – Ocean Motion.wav
Pre-gap length 0:00:02.00
Peak level 96.1 %
Track quality 100.0 %
Test CRC 34320F15
Copy CRC 34320F15
Copy OK
Track 2
Filename D:\Obmen\Torrent\Музыка\Flac\TakeDake with Neptune\02. TakeDake with Neptune – In the Hollow.wav
Pre-gap length 0:02:59.16
Peak level 87.1 %
Track quality 100.0 %
Test CRC 86330B1D
Copy CRC 86330B1D
Copy OK
Track 3
Filename D:\Obmen\Torrent\Музыка\Flac\TakeDake with Neptune\03. TakeDake with Neptune – Jegoging.wav
Pre-gap length 0:00:02.93
Peak level 98.0 %
Track quality 100.0 %
Test CRC 2171C73E
Copy CRC 2171C73E
Copy OK
Track 4
Filename D:\Obmen\Torrent\Музыка\Flac\TakeDake with Neptune\04. TakeDake with Neptune – Java.wav
Pre-gap length 0:00:02.46
Peak level 95.7 %
Track quality 100.0 %
Test CRC E4E5DB53
Copy CRC E4E5DB53
Copy OK
Track 5
Filename D:\Obmen\Torrent\Музыка\Flac\TakeDake with Neptune\05. TakeDake with Neptune – Korea Idea.wav
Pre-gap length 0:00:02.46
Peak level 98.4 %
Track quality 100.0 %
Test CRC 8000EE63
Copy CRC 8000EE63
Copy OK
Track 6
Filename D:\Obmen\Torrent\Музыка\Flac\TakeDake with Neptune\06. TakeDake with Neptune – Japanese Roots.wav
Pre-gap length 0:00:01.97
Peak level 97.6 %
Track quality 100.0 %
Test CRC E646944A
Copy CRC E646944A
Copy OK
Track 7
Filename D:\Obmen\Torrent\Музыка\Flac\TakeDake with Neptune\07. TakeDake with Neptune – Five Nodes.wav
Pre-gap length 0:00:02.09
Peak level 98.5 %
Track quality 100.0 %
Test CRC 214BE6E6
Copy CRC 214BE6E6
Copy OK
Track 8
Filename D:\Obmen\Torrent\Музыка\Flac\TakeDake with Neptune\08. TakeDake with Neptune – Uduboo.wav
Pre-gap length 0:00:02.13
Peak level 96.3 %
Track quality 100.0 %
Test CRC E96426DA
Copy CRC E96426DA
Copy OK
Track 9
Filename D:\Obmen\Torrent\Музыка\Flac\TakeDake with Neptune\09. TakeDake with Neptune – Parting Paths.wav
Pre-gap length 0:00:04.45
Peak level 47.0 %
Track quality 100.0 %
Test CRC 095A262F
Copy CRC 095A262F
Copy OK
Track 10
Filename D:\Obmen\Torrent\Музыка\Flac\TakeDake with Neptune\10. TakeDake with Neptune – Sky and Sand Way.wav
Pre-gap length 0:00:02.20
Peak level 97.3 %
Track quality 100.0 %
Test CRC 5C32D163
Copy CRC 5C32D163
Copy OK
Track 11
Filename D:\Obmen\Torrent\Музыка\Flac\TakeDake with Neptune\11. TakeDake with Neptune – Angklung Journey.wav
Peak level 31.8 %
Track quality 100.0 %
Test CRC 65D731E3
Copy CRC 65D731E3
Copy OK
Track 12
Filename D:\Obmen\Torrent\Музыка\Flac\TakeDake with Neptune\12. TakeDake with Neptune – Angklung Journey.wav
Pre-gap length 0:00:00.62
Peak level 32.3 %
Track quality 100.0 %
Test CRC 9749EBAA
Copy CRC 9749EBAA
Copy OK
No errors occurred
End of status report
Информация о проекте:
 
скрытый текст
Запомните хорошенько это название и имя — ансамбль “ТакеДаке”и Джон Кайдзан Нептюн (John «Kaizan» Neptune). Уж не знаю, где вам доведется столкнуться с их музыкой (к нам диск пришел напрямую из Японии), но это,пожалуй, один из самых необычных по замыслу и звучанию проектов, которыемне приводилось слышать.
Сам Нептюн — американец, но он давно живет в Японии и с 1971 года играет на бамбуковой флейте сякухати. Довольно долго он практиковалсяс разными составами и соло, но в 1995 году после посещения фестиваля бамбуковыхнародных инструментов в Бали у него появилась идея сделать из бамбука копии некоторых оркестровых инструментов и организовать свою группу. Через год его энтузиазм принес первые результаты.
В состав ансамбля “ТакеДаке”, кроме самого флейтиста, входит пять человек — три японца и два американца. Хитоси Хамада играет на балифоне — бамбуковом аналоге вибрафона, Ёсихико Катори освоил бамбасс— набор открытых с одного торца бамбуковых отрезков разной длины, по которым ударяют круглыми плоскими лопаточками, Ёсинори Номи сидит за несколькими бамбуковыми конгами оригинальной трапециевидной формы, Марк Де Розе получилв распоряжение ударную установку, очень похожую на обычную, только все ее барабаны и тарелки сделаны тоже из бамбука. Ну и самый молодой участник секстета — Кристофер Харди — имеет большой комплект самой разнообразнейшей перкуссии, тоже, разумеется, бамбуковой.
Теперь самое время спросить: «А стоила ли овчинка, то есть бамбук, выделки?» Совершенно однозначно и без всяких скидок на личные пристрастия могу ответить — да! Знаете, все бамбуковые ударные инструменты с точки зрения акустики почти идеальны: необычайно упругий, сочный, разнообразный по тембру звук, совершенно без металлического призвука, но не уступающий ему по четкости, покоряет мгновенно любого слушателя. Конечно, «любого»— это эмоциональное преувеличение, но вообще-то этот диск побил рекорд моего личного теста — он понравился практически всем (!) моим знакомым,кому я имею обыкновение демонстрировать музыкальные новинки.
Сякухати и балифон составили в сочетании с ударными прелестную пару, причем, что забавно, в манере Нептюна больше восточных корней, чем в игре Хитоси Хамада — они как бы поменялись на время национальными образами. Вся музыка представляет собой вариации на всевозможнейшие «подслушанные» Нептюном во время путешествий по Азии восточные темы. Однако если вы подумали,что это очередной (который по счету) ансамбль с очередными народными попевками,то это далеко не так. Все обработки сделаны с изрядной долей джазовости— в них есть и своеобразный свинг, и блюзовость, и импровизации, только это вплетено в восточные образы настолько прочно и неразрывно, что получившемуся результату можно даже дать новое название — world jazz (по аналогии с worldmusic).
Взято с сайта Jazz-Квадрат.
07:00
304
Нет комментариев. Ваш будет первым!