Поиск

(Bossa Nova / Brazilian Jazz) Astrud Gilberto - The Girl From Ipanema - 1990, FLAC (tracks+.cue), lossless

(Bossa Nova / Brazilian Jazz) Astrud Gilberto - The Girl From Ipanema - 1990, FLAC (tracks+.cue), lossless
Треклист:
Astrud Gilberto - The Girl From Ipanema
Жанр: Bossa Nova / Brazilian Jazz
Год выпуска : 1990
Аудио кодек: FLAC
Тип рипа: tracks+.cue
Битрейт аудио: lossless
Продолжительность: 00:35:40
Рип: What CD


01. The Girl From Ipanema (3:19)
02. Meu Piao (3:42)
03. Far Away (vocal and trumpet by Chet Baker) (4:26)
04. We'll Make Today Last Last Night Again (3:09)
05. Black Magic (A Gira) (3:04)
06. All I've Got (6:12)
07. Love For Sale (3:14)
08. Wanting You (2:40)
09. The Puppy Song (2:54)
10. Mamae Eu Quero - Chica Chica Boom Chic (3:01)

 
EAC
Exact Audio Copy V0.99 prebeta 4 from 23. January 2008
EAC extraction logfile from 9. January 2009, 20:35
Astrud Gilberto / The Girl From Ipanema
Used drive : HL-DT-STCD-RW GCE-8525B Adapter: 1 ID: 0
Read mode : Secure
Utilize accurate stream : Yes
Defeat audio cache : Yes
Make use of C2 pointers : No
Read offset correction : 6
Overread into Lead-In and Lead-Out : No
Fill up missing offset samples with silence : Yes
Delete leading and trailing silent blocks : No
Null samples used in CRC calculations : Yes
Used interface : Native Win32 interface for Win NT & 2000
Gap handling : Appended to previous track
Used output format : User Defined Encoder
Selected bitrate : 128 kBit/s
Quality : High
Add ID3 tag : No
Command line compressor : C:\Program Files\FLAC\flac.exe
Additional command line options : -8 -A tukey(0.25) -A gauss(0.1875) -b 4096 -V -T "artist=%a" -T "title=%t" -T "album=%g" -T "date=%y" -T "tracknumber=%n" -T "genre=%m" %s --sector-align
TOC of the extracted CD
Track | Start | Length | Start sector | End sector
---------------------------------------------------------
1 | 0:00.32 | 3:18.50 | 32 | 14931
2 | 3:19.07 | 3:42.13 | 14932 | 31594
3 | 7:01.20 | 4:25.52 | 31595 | 51521
4 | 11:26.72 | 3:08.60 | 51522 | 65681
5 | 14:35.57 | 3:04.30 | 65682 | 79511
6 | 17:40.12 | 6:11.40 | 79512 | 107376
7 | 23:51.52 | 3:14.18 | 107377 | 121944
8 | 27:05.70 | 2:40.27 | 121945 | 133971
9 | 29:46.22 | 2:53.68 | 133972 | 147014
10 | 32:40.15 | 3:01.10 | 147015 | 160599
Track 1
Filename G:\My Music [FLAC]\A\Astrud Gilberto\Astrud Gilberto - 1990 - The Girl From Ipanema\01 - The Girl From Ipanema.wav
Pre-gap length 0:00:02.42
Peak level 84.0 %
Track quality 100.0 %
Test CRC 77EBB74B
Copy CRC 77EBB74B
Accurately ripped (confidence 1) [BCE30B66]
Copy OK
Track 2
Filename G:\My Music [FLAC]\A\Astrud Gilberto\Astrud Gilberto - 1990 - The Girl From Ipanema\02 - Meu Piao.wav
Pre-gap length 0:00:01.00
Peak level 82.1 %
Track quality 99.9 %
Test CRC 1788BA9E
Copy CRC 1788BA9E
Accurately ripped (confidence 1) [48700201]
Copy OK
Track 3
Filename G:\My Music [FLAC]\A\Astrud Gilberto\Astrud Gilberto - 1990 - The Girl From Ipanema\03 - Far Away (vocal and trumpet by Chet Baker).wav
Pre-gap length 0:00:01.00
Peak level 84.9 %
Track quality 100.0 %
Test CRC 242E4B85
Copy CRC 242E4B85
Accurately ripped (confidence 1) [72DA0844]
Copy OK
Track 4
Filename G:\My Music [FLAC]\A\Astrud Gilberto\Astrud Gilberto - 1990 - The Girl From Ipanema\04 - We'll Make Today Last Last Night Again.wav
Pre-gap length 0:00:01.64
Peak level 84.7 %
Track quality 100.0 %
Test CRC 86F96875
Copy CRC 86F96875
Accurately ripped (confidence 1) [09A776B1]
Copy OK
Track 5
Filename G:\My Music [FLAC]\A\Astrud Gilberto\Astrud Gilberto - 1990 - The Girl From Ipanema\05 - Black Magic (A Gira).wav
Pre-gap length 0:00:01.53
Peak level 83.5 %
Track quality 100.0 %
Test CRC 4DE59709
Copy CRC 4DE59709
Accurately ripped (confidence 1) [D6CC6B7F]
Copy OK
Track 6
Filename G:\My Music [FLAC]\A\Astrud Gilberto\Astrud Gilberto - 1990 - The Girl From Ipanema\06 - All I've Got.wav
Pre-gap length 0:00:01.20
Peak level 87.2 %
Track quality 100.0 %
Test CRC FA16BB89
Copy CRC FA16BB89
Accurately ripped (confidence 1) [2C3BE051]
Copy OK
Track 7
Filename G:\My Music [FLAC]\A\Astrud Gilberto\Astrud Gilberto - 1990 - The Girl From Ipanema\07 - Love For Sale.wav
Pre-gap length 0:00:01.73
Peak level 85.3 %
Track quality 99.9 %
Test CRC F6E8DABA
Copy CRC F6E8DABA
Accurately ripped (confidence 1) [72B5D824]
Copy OK
Track 8
Filename G:\My Music [FLAC]\A\Astrud Gilberto\Astrud Gilberto - 1990 - The Girl From Ipanema\08 - Wanting You.wav
Pre-gap length 0:00:02.00
Peak level 86.9 %
Track quality 100.0 %
Test CRC 0DAAEF28
Copy CRC 0DAAEF28
Accurately ripped (confidence 1) [C2F46292]
Copy OK
Track 9
Filename G:\My Music [FLAC]\A\Astrud Gilberto\Astrud Gilberto - 1990 - The Girl From Ipanema\09 - The Puppy Song.wav
Pre-gap length 0:00:01.16
Peak level 85.3 %
Track quality 100.0 %
Test CRC 42C3AC45
Copy CRC 42C3AC45
Accurately ripped (confidence 1) [AE9FC969]
Copy OK
Track 10
Filename G:\My Music [FLAC]\A\Astrud Gilberto\Astrud Gilberto - 1990 - The Girl From Ipanema\10 - Mamae Eu Quero - Chica Chica Boom Chic.wav
Pre-gap length 0:00:01.13
Peak level 88.0 %
Track quality 100.0 %
Test CRC 51052E69
Copy CRC 51052E69
Accurately ripped (confidence 1) [A5E71D65]
Copy OK
All tracks accurately ripped
No errors occurred
End of status report
 
CUE
REM GENRE "Bossa Nova"
REM DATE 1990
REM DISCID 88085D0A
REM COMMENT "ExactAudioCopy v0.99pb4"
PERFORMER "Astrud Gilberto"
TITLE "The Girl From Ipanema"
FILE "01 - The Girl From Ipanema.wav" WAVE
TRACK 01 AUDIO
TITLE "The Girl From Ipanema"
PERFORMER "Astrud Gilberto"
PREGAP 00:00:32
INDEX 01 00:00:00
TRACK 02 AUDIO
TITLE "Meu Piao"
PERFORMER "Astrud Gilberto"
INDEX 00 03:17:50
FILE "02 - Meu Piao.wav" WAVE
INDEX 01 00:00:00
TRACK 03 AUDIO
TITLE "Far Away (vocal and trumpet by Chet Baker)"
PERFORMER "Astrud Gilberto"
INDEX 00 03:41:13
FILE "03 - Far Away (vocal and trumpet by Chet Baker).wav" WAVE
INDEX 01 00:00:00
TRACK 04 AUDIO
TITLE "We'll Make Today Last Last Night Again"
PERFORMER "Astrud Gilberto"
INDEX 00 04:24:04
FILE "04 - We'll Make Today Last Last Night Again.wav" WAVE
INDEX 01 00:00:00
TRACK 05 AUDIO
TITLE "Black Magic (A Gira)"
PERFORMER "Astrud Gilberto"
INDEX 00 03:07:20
FILE "05 - Black Magic (A Gira).wav" WAVE
INDEX 01 00:00:00
TRACK 06 AUDIO
TITLE "All I've Got"
PERFORMER "Astrud Gilberto"
INDEX 00 03:03:15
FILE "06 - All I've Got.wav" WAVE
INDEX 01 00:00:00
TRACK 07 AUDIO
TITLE "Love For Sale"
PERFORMER "Astrud Gilberto"
INDEX 00 06:09:60
FILE "07 - Love For Sale.wav" WAVE
INDEX 01 00:00:00
TRACK 08 AUDIO
TITLE "Wanting You"
PERFORMER "Astrud Gilberto"
INDEX 00 03:12:18
FILE "08 - Wanting You.wav" WAVE
INDEX 01 00:00:00
TRACK 09 AUDIO
TITLE "The Puppy Song"
PERFORMER "Astrud Gilberto"
INDEX 00 02:39:15
FILE "09 - The Puppy Song.wav" WAVE
INDEX 01 00:00:00
TRACK 10 AUDIO
TITLE "Mamae Eu Quero - Chica Chica Boom Chic"
PERFORMER "Astrud Gilberto"
INDEX 00 02:52:58
FILE "10 - Mamae Eu Quero - Chica Chica Boom Chic.wav" WAVE
INDEX 01 00:00:00
На AMG упоминается целая тьма изданий, этой компиляции.
Так как ковров в раздаче нет, то просто нереально узнать, каким лейблом издвался этот сборник и соответствует ли ему обложка.
По всем вопросам пишите личное сообщение пользователю M0p94ok.
07:01
214
Нет комментариев. Ваш будет первым!