Поиск

(Post-Bop, Soul Jazz) Sadao Watanabe - Jazz Samba - 2007, FLAC (tracks+.cue), lossless

(Post-Bop, Soul Jazz) Sadao Watanabe - Jazz Samba - 2007, FLAC (tracks+.cue), lossless
Треклист:
•Sadao Watanabe - Jazz Samba•
Жанр: Post-Bop, Soul Jazz
Страна-производитель диска: U.S.A.
Год издания диска: 2007
Издатель (лейбл): KOCH-Records
Номер по каталогу: KOC-CD-4198
Аудиокодек: FLAC (*.flac)
Тип рипа: tracks+.cue
Битрейт аудио: lossless
Продолжительность: 00:38:06
Источник (релизер): begaybe
Наличие сканов в содержимом раздачи: да
Треклист:
01. Samba de Orphee (3:44)
02. It Might as Well Be Spring (4:27)
03. Water Melon Man (4:05)
04. Frevo (2:24)
05. Lobo Bobo (3:11)
06. She Loves You (3:46)
07. Four Leaf Clover (2:22)
08. Surf Board (1:53)
09. Sunny (4:08)
10. Spring Samba (3:15)
11. Fried Bananas (2:31)
12. Berimbau (2:19)

Personnel:
Sadao Watanabe - as,fl
Masabumi Kikuchi - p
Masanaga Harada - b
Masahiko Togashi - dr
 
Лог создания рипа
Exact Audio Copy V1.0 beta 2 from 29. April 2011
EAC extraction logfile from 30. December 2011, 10:05
Sadao Watanabe / Jazz Samba
Used drive : HL-DT-STDVD+-RW GSA-H31L Adapter: 1 ID: 0
Read mode : Secure
Utilize accurate stream : Yes
Defeat audio cache : Yes
Make use of C2 pointers : No
Read offset correction : 102
Overread into Lead-In and Lead-Out : No
Fill up missing offset samples with silence : Yes
Delete leading and trailing silent blocks : No
Null samples used in CRC calculations : Yes
Used interface : Native Win32 interface for Win NT & 2000
Gap handling : Appended to previous track
Used output format : User Defined Encoder
Selected bitrate : 768 kBit/s
Quality : High
Add ID3 tag : No
Command line compressor : C:\Program Files\Exact Audio Copy\Flac\flac.exe
Additional command line options : -8 -V -T "ARTIST=%artist%" -T "TITLE=%title%" -T "ALBUM=%albumtitle%" -T "DATE=%year%" -T "TRACKNUMBER=%tracknr%" -T "TOTALTRACKS=%numtracks%" -T "GENRE=%genre%" -T "ALBUMARTIST=%albumartist%" -T "ALBUM ARTIST=%albumartist%
TOC of the extracted CD
Track | Start | Length | Start sector | End sector
---------------------------------------------------------
1 | 0:00.00 | 3:43.70 | 0 | 16794
2 | 3:43.70 | 4:27.00 | 16795 | 36819
3 | 8:10.70 | 4:04.70 | 36820 | 55189
4 | 12:15.65 | 2:24.20 | 55190 | 66009
5 | 14:40.10 | 3:11.28 | 66010 | 80362
6 | 17:51.38 | 3:46.05 | 80363 | 97317
7 | 21:37.43 | 2:22.17 | 97318 | 107984
8 | 23:59.60 | 1:52.73 | 107985 | 116457
9 | 25:52.58 | 4:07.47 | 116458 | 135029
10 | 30:00.30 | 3:15.03 | 135030 | 149657
11 | 33:15.33 | 2:31.22 | 149658 | 161004
12 | 35:46.55 | 2:19.07 | 161005 | 171436
Track 1
Filename F:\Rips\01 - Samba de Orphee.wav
Pre-gap length 0:00:02.00
Peak level 100.0 %
Extraction speed 1.8 X
Track quality 100.0 %
Test CRC E8764931
Copy CRC E8764931
Accurately ripped (confidence 2) [1DB825A4] (AR v1)
Copy OK
Track 2
Filename F:\Rips\02 - It Might as Well Be Spring.wav
Pre-gap length 0:00:02.33
Peak level 94.3 %
Extraction speed 2.0 X
Track quality 100.0 %
Test CRC 6BDB443E
Copy CRC 6BDB443E
Accurately ripped (confidence 2) [1410F375] (AR v1)
Copy OK
Track 3
Filename F:\Rips\03 - Water Melon Man.wav
Pre-gap length 0:00:02.33
Peak level 100.0 %
Extraction speed 2.1 X
Track quality 100.0 %
Test CRC 7A0354AD
Copy CRC 7A0354AD
Accurately ripped (confidence 2) [DF75352D] (AR v1)
Copy OK
Track 4
Filename F:\Rips\04 - Frevo.wav
Pre-gap length 0:00:02.34
Peak level 100.0 %
Extraction speed 2.0 X
Track quality 100.0 %
Test CRC 6FAA52B8
Copy CRC 6FAA52B8
Accurately ripped (confidence 2) [64329F94] (AR v1)
Copy OK
Track 5
Filename F:\Rips\05 - Lobo Bobo.wav
Pre-gap length 0:00:02.33
Peak level 94.3 %
Extraction speed 2.2 X
Track quality 100.0 %
Test CRC 9B8BB759
Copy CRC 9B8BB759
Accurately ripped (confidence 2) [411D4548] (AR v1)
Copy OK
Track 6
Filename F:\Rips\06 - She Loves You.wav
Pre-gap length 0:00:02.33
Peak level 100.0 %
Extraction speed 2.1 X
Track quality 99.9 %
Test CRC D679C14A
Copy CRC D679C14A
Accurately ripped (confidence 2) [3397454E] (AR v1)
Copy OK
Track 7
Filename F:\Rips\07 - Four Leaf Clover.wav
Pre-gap length 0:00:02.34
Peak level 100.0 %
Extraction speed 2.2 X
Track quality 100.0 %
Test CRC 2014F4F7
Copy CRC 2014F4F7
Accurately ripped (confidence 2) [B4A13D96] (AR v1)
Copy OK
Track 8
Filename F:\Rips\08 - Surf Board.wav
Pre-gap length 0:00:02.33
Peak level 100.0 %
Extraction speed 2.2 X
Track quality 100.0 %
Test CRC BA774299
Copy CRC BA774299
Accurately ripped (confidence 2) [EB54DA7E] (AR v1)
Copy OK
Track 9
Filename F:\Rips\09 - Sunny.wav
Pre-gap length 0:00:02.34
Peak level 100.0 %
Extraction speed 2.3 X
Track quality 99.9 %
Test CRC 540D8734
Copy CRC 540D8734
Accurately ripped (confidence 2) [BE8A5C8D] (AR v1)
Copy OK
Track 10
Filename F:\Rips\10 - Spring Samba.wav
Pre-gap length 0:00:02.34
Peak level 100.0 %
Extraction speed 2.6 X
Track quality 100.0 %
Test CRC 58450576
Copy CRC 58450576
Accurately ripped (confidence 2) [9680841B] (AR v1)
Copy OK
Track 11
Filename F:\Rips\11 - Fried Bananas.wav
Pre-gap length 0:00:02.35
Peak level 100.0 %
Extraction speed 2.6 X
Track quality 100.0 %
Test CRC F57E6962
Copy CRC F57E6962
Accurately ripped (confidence 2) [082048D7] (AR v1)
Copy OK
Track 12
Filename F:\Rips\12 - Berimbau.wav
Pre-gap length 0:00:02.33
Peak level 94.3 %
Extraction speed 2.2 X
Track quality 99.9 %
Test CRC 1CCAEF33
Copy CRC 1CCAEF33
Accurately ripped (confidence 2) [E807AAD1] (AR v1)
Copy OK
All tracks accurately ripped
No errors occurred
End of status report
==== Log checksum C45F261137787364307E48F98B6F79EF78F186FFFD33B6350DE4C7D8EBD50E2D ====
 
Содержание индексной карты (.CUE)
REM GENRE Jazz
REM DATE 2007
REM DISCID AA08ED0C
REM COMMENT "ExactAudioCopy v1.0b2"
PERFORMER "Sadao Watanabe"
TITLE "Jazz Samba"
FILE "01 - Samba de Orphee.wav" WAVE
TRACK 01 AUDIO
TITLE "Samba de Orphee"
PERFORMER "Sadao Watanabe"
INDEX 01 00:00:00
TRACK 02 AUDIO
TITLE "It Might as Well Be Spring"
PERFORMER "Sadao Watanabe"
INDEX 00 03:41:37
FILE "02 - It Might as Well Be Spring.wav" WAVE
INDEX 01 00:00:00
TRACK 03 AUDIO
TITLE "Water Melon Man"
PERFORMER "Sadao Watanabe"
INDEX 00 04:24:42
FILE "03 - Water Melon Man.wav" WAVE
INDEX 01 00:00:00
TRACK 04 AUDIO
TITLE "Frevo"
PERFORMER "Sadao Watanabe"
INDEX 00 04:02:36
FILE "04 - Frevo.wav" WAVE
INDEX 01 00:00:00
TRACK 05 AUDIO
TITLE "Lobo Bobo"
PERFORMER "Sadao Watanabe"
INDEX 00 02:21:62
FILE "05 - Lobo Bobo.wav" WAVE
INDEX 01 00:00:00
TRACK 06 AUDIO
TITLE "She Loves You"
PERFORMER "Sadao Watanabe"
INDEX 00 03:08:70
FILE "06 - She Loves You.wav" WAVE
INDEX 01 00:00:00
TRACK 07 AUDIO
TITLE "Four Leaf Clover"
PERFORMER "Sadao Watanabe"
INDEX 00 03:43:46
FILE "07 - Four Leaf Clover.wav" WAVE
INDEX 01 00:00:00
TRACK 08 AUDIO
TITLE "Surf Board"
PERFORMER "Sadao Watanabe"
INDEX 00 02:19:59
FILE "08 - Surf Board.wav" WAVE
INDEX 01 00:00:00
TRACK 09 AUDIO
TITLE "Sunny"
PERFORMER "Sadao Watanabe"
INDEX 00 01:50:39
FILE "09 - Sunny.wav" WAVE
INDEX 01 00:00:00
TRACK 10 AUDIO
TITLE "Spring Samba"
PERFORMER "Sadao Watanabe"
INDEX 00 04:05:13
FILE "10 - Spring Samba.wav" WAVE
INDEX 01 00:00:00
TRACK 11 AUDIO
TITLE "Fried Bananas"
PERFORMER "Sadao Watanabe"
INDEX 00 03:12:43
FILE "11 - Fried Bananas.wav" WAVE
INDEX 01 00:00:00
TRACK 12 AUDIO
TITLE "Berimbau"
PERFORMER "Sadao Watanabe"
INDEX 00 02:28:64
FILE "12 - Berimbau.wav" WAVE
INDEX 01 00:00:00
00:46
383
Нет комментариев. Ваш будет первым!