Поиск

(Afro-Cuban Jazz, Post-Bop, Trumpet) Jerry Gonzalez & The Fort Apache Band - The River Is Deep {ENJA 4040 2, Austria} - 1982, APE (image+.cue) lossless

Треклист:
Jerry Gonzalez & The Fort Apache Band - The River Is Deep
Жанр: Afro-Cuban Jazz, Post-Bop, Trumpet
Страна-производитель диска: Austria
Год издания диска: 1982
Издатель (лейбл): enja
Номер по каталогу: ENJA 4040 2
Аудио кодек: APE (*.ape)
Тип рипа: image+.cue
Битрейт аудио: lossless
Продолжительность: 00:42:28
Источник (релизер): barin99
Наличие сканов в содержимом раздачи: да
Треклист:
1. Introduction by Jerry Gonzalez 0:27
2. Elegua 2:06
3. Bebop 11:15
4. Rio Esta Hondo 6:55
5. Guiro Apache 1:47
6. Parisian Thoroughfare 13:07
7. Wawina Era Wo 6:49
Personnel:
Jerry Gonzalez — Bells, Conga, Coro, Flugelhorn, Trumpet
Frankie Rodrigues — Claves, Conga, Vocals
Wilfredo Velez — Sax (Alto)
Steve Turre — Trombone, Trombone (Bass)
Angel Papo Vasquez — Trombone
Edgardo Miranda — Cuatro, Guitar
Jorge Dalto — Piano
Andy González — Bass, Coro
Steve Berrios — Bata, Chekere, Coro, Drums
Gene Golden — Bata, Bells, Chekere, Conga
Héctor Hernández — Bata, Chekere, Conga
Nicky Marrero — Guataca, Percussion, Timbales
 
Лог создания рипа (EAC Log)
Exact Audio Copy V1.0 beta 1 from 15. November 2010
EAC extraction logfile from 15. December 2011, 19:13
Jerry Gonzalez& The Fort Apache Band / The River Is Deep
Used drive : TSSTcorpDVD+-RW TS-L532B Adapter: 1 ID: 0
Read mode : Secure
Utilize accurate stream : Yes
Defeat audio cache : Yes
Make use of C2 pointers : No
Read offset correction : 704
Overread into Lead-In and Lead-Out : No
Fill up missing offset samples with silence : Yes
Delete leading and trailing silent blocks : No
Null samples used in CRC calculations : Yes
Used interface : Native Win32 interface for Win NT & 2000
Used output format : Internal WAV Routines
Sample format : 44.100 Hz; 16 Bit; Stereo
TOC of the extracted CD
Track | Start | Length | Start sector | End sector
---------------------------------------------------------
1 | 0:00.50 | 0:27.60 | 50 | 2134
2 | 0:28.35 | 2:06.35 | 2135 | 11619
3 | 2:34.70 | 11:15.05 | 11620 | 62249
4 | 13:50.00 | 6:55.00 | 62250 | 93374
5 | 20:45.00 | 1:47.37 | 93375 | 101436
6 | 22:32.37 | 13:07.03 | 101437 | 160464
7 | 35:39.40 | 6:50.00 | 160465 | 191214
Range status and errors
Selected range
Filename C:\Documents and Settings\VB\My Documents\BARIN99\Jerry Gonzalez& The Fort Apache Band - The River Is Deep\Jerry Gonzalez& The Fort Apache Band - The River Is Deep.wav
Peak level 98.3 %
Extraction speed 0.4 X
Range quality 99.9 %
Copy CRC 045D879E
Copy OK
No errors occurred
AccurateRip summary
Track 1 not present in database
Track 2 not present in database
Track 3 not present in database
Track 4 not present in database
Track 5 not present in database
Track 6 not present in database
Track 7 not present in database
None of the tracks are present in the AccurateRip database
End of status report
 
Содержание индексной карты (.CUE)
REM GENRE Jazz
REM DATE 1982
REM DISCID 4109F507
REM COMMENT "ExactAudioCopy v1.0b1"
PERFORMER "Jerry Gonzalez & The Fort Apache Band"
TITLE "The River Is Deep"
FILE "Jerry Gonzalez & The Fort Apache Band - The River Is Deep.ape" WAVE
TRACK 01 AUDIO
TITLE "Introduction"
PERFORMER "Jerry Gonzalez & The Fort Apache Band"
INDEX 00 00:00:00
INDEX 01 00:00:50
TRACK 02 AUDIO
TITLE "Elegua"
PERFORMER "Jerry Gonzalez & The Fort Apache Band"
INDEX 00 00:28:32
INDEX 01 00:28:35
TRACK 03 AUDIO
TITLE "Bebop"
PERFORMER "Jerry Gonzalez & The Fort Apache Band"
INDEX 00 02:34:67
INDEX 01 02:34:70
TRACK 04 AUDIO
TITLE "Rio Esta Hondo"
PERFORMER "Jerry Gonzalez & The Fort Apache Band"
INDEX 00 13:49:72
INDEX 01 13:50:00
TRACK 05 AUDIO
TITLE "Guiro Apache"
PERFORMER "Jerry Gonzalez & The Fort Apache Band"
INDEX 00 20:44:72
INDEX 01 20:45:00
TRACK 06 AUDIO
TITLE "Parisian Thoroughofare"
PERFORMER "Jerry Gonzalez & The Fort Apache Band"
INDEX 00 22:32:35
INDEX 01 22:32:37
TRACK 07 AUDIO
TITLE "Wawina Era Wo"
PERFORMER "Jerry Gonzalez & The Fort Apache Band"
INDEX 00 35:39:37
INDEX 01 35:39:40
 
AMG
"Jerry Gonzalez, equally proficient at trumpet and congas, leads his Fort Apache Band through a live set concentrating on Latinized versions of bop standards and pieces directly from the Afro-Cuban santeria tradition. The bop pieces, Dizzy Gillespie's 'Bebop' and Bud Powell's 'Parisian Thoroughfare,' are given rough and tumble treatments, bobbing along on extensive percussion and tight arrangements. They feature some fine soloing from pianist Jorge Dalto and altoist Wilfredo Velez especially, the latter stretching things a bit beyond the changes. But the real highlights are the songs by vocalist Frankie Rodrigues, including the title track (though it's listed in Spanish as 'Rio Esta Hondo'). The call and response of the singers over the crackling, extraordinarily complex rhythms of the percussionists is very exciting stuff, providing a unique sort of tension and release. The final cut, 'Wawina Era Wo,' makes the African part of Afro-Cuban crystal clear: a wonderful interlocking melody reminiscent of parts of Clifford Thornton's The Gardens of Harlem, with the horns and percussion in an intricate and heady dance. On the whole, The River Is Deep has perhaps a shade less bite than the preceding release, Ya Yo Me Cure on American Clave, but it's an invigorating session nonetheless. Recommended."
00:47
251
Нет комментариев. Ваш будет первым!