Поиск

(Ethno Jazz, Klezmer, Accordion) David Yengibarjan with Frank London - Pandoukht - 2003, FLAC (image+.cue), lossless

(Ethno Jazz, Klezmer, Accordion) David Yengibarjan with Frank London - Pandoukht - 2003, FLAC (image+.cue), lossless
Треклист:
David Yengibarjan with Frank London / Pandoukht
Жанр: Ethno Jazz, Klezmer, Accordion
Страна-производитель диска: Hungary
Год издания диска: 2003
Издатель (лейбл): BMC Records
Номер по каталогу: CD 087
Страна: Armenia
Аудиокодек: FLAC (*.flac)
Тип рипа: image+.cue
Битрейт аудио: lossless
Продолжительность: 55:44
Источник (релизер): STX
Наличие сканов в содержимом раздачи: нет
Треклист:
01. Ouverture (7:16)
02. Berd par (5:05)
03. Hoy Noubar (6:09)
04. Ararat (6:19)
05. D'le yaman (12:37)
06. Golem Khosidl (7:53)
07. Pandoukht (5:37)
08. Liliputien (1:25)
09. Meron Nign (3:16)
David Yengibarjan - accordion
Frank London - trumpet
József Barcza Horváth - bass
András Dés - percussion;
guest Gábor Gadó - guitar (tracks 3, 4, 5, 6, 9)
 
Лог создания рипа
Exact Audio Copy V1.0 beta 2 from 29. April 2011
Отчёт EAC об извлечении, выполненном 9. января 2012, 18:01
David Yengibarjan with Frank London / Pandoukht
Дисковод: Optiarc DVD RW AD-7530B Adapter: 1 ID: 0
Режим чтения : Достоверность
Использование точного потока : Да
Отключение кэша аудио : Да
Использование указателей C2 : Нет
Коррекция смещения при чтении : 6
Способность читать области Lead-in и Lead-out : Нет
Заполнение пропущенных сэмплов тишиной : Да
Удаление блоков с тишиной в начале и конце : Нет
При вычислениях CRC использовались нулевые сэмплы : Да
Интерфейс : Установленный внешний ASPI-интерфейс
Выходной формат : Пользовательский кодировщик
Выбранный битрейт : 896 kBit/s
Качество : Высокий
Добавление ID3-тега : Нет
Утилита сжатия : C:\Program Files\Exact Audio Copy\Flac\flac.exe
Дополнительные параметры : -V -8 -T "Date=%year%" -T "Genre=%genre%" %source%
TOC извлечённого CD
Трек | Старт | Длительность | Начальный сектор | Конечный сектор
---------------------------------------------------------------------
1 | 0:00.00 | 7:17.10 | 0 | 32784
2 | 7:17.10 | 5:05.69 | 32785 | 55728
3 | 12:23.04 | 6:09.41 | 55729 | 83444
4 | 18:32.45 | 6:20.23 | 83445 | 111967
5 | 24:52.68 | 12:38.09 | 111968 | 168826
6 | 37:31.02 | 7:54.29 | 168827 | 204405
7 | 45:25.31 | 5:37.49 | 204406 | 229729
8 | 51:03.05 | 1:25.12 | 229730 | 236116
9 | 52:28.17 | 3:16.43 | 236117 | 250859
Характеристики диапазона извлечения и сообщения об ошибках
Выбранный диапазон
Имя файла F:\Новая папка (21)\Новая папка\David Yengibarjan with Frank London - Pandoukht.wav
Пиковый уровень 100.0 %
Скорость извлечения 5.0 X
Качество диапазона 99.9 %
CRC копии 3400BEE5
Копирование... OK
Ошибок не произошло
AccurateRip: сводка
Трек 1 точность не определена (достоверность 2) [3DD04923], AccurateRip вернул [F72F0481] (AR v2)
Трек 2 точность не определена (достоверность 2) [CB5BE245], AccurateRip вернул [70F21272] (AR v2)
Трек 3 точность не определена (достоверность 2) [AA89B479], AccurateRip вернул [7B139E43] (AR v2)
Трек 4 точность не определена (достоверность 2) [4CF15FDE], AccurateRip вернул [22C63545] (AR v2)
Трек 5 точность не определена (достоверность 2) [4AC29A51], AccurateRip вернул [AB939DD6] (AR v2)
Трек 6 точность не определена (достоверность 2) [73EA7F60], AccurateRip вернул [BCC424B1] (AR v2)
Трек 7 точность не определена (достоверность 2) [6CC1BD18], AccurateRip вернул [523A1FC4] (AR v2)
Трек 8 точность не определена (достоверность 2) [476DE18D], AccurateRip вернул [86B24CE5] (AR v2)
Трек 9 точность не определена (достоверность 2) [E2A80432], AccurateRip вернул [0AC950FF] (AR v2)
Ни один трек не прошёл проверки на точность
В вашей базе может быть иной вариант штамповки диска
Конец отчёта
==== Контрольная сумма отчёта 07499580179D3500F4C0762EC3702937B319E0D44E9CE7B087B403A9DCCFA3B5 ====
 
Содержание индексной карты (.CUE)
REM GENRE Jazz
REM DATE 2003
REM DISCID 700D1009
REM COMMENT "ExactAudioCopy v1.0b2"
CATALOG 0000000000000
PERFORMER "David Yengibarjan with Frank London"
TITLE "Pandoukht"
FILE "David Yengibarjan with Frank London - Pandoukht.flac" WAVE
TRACK 01 AUDIO
TITLE "Overture"
PERFORMER "David Yengibarjan with Frank London"
ISRC 000000000000
INDEX 01 00:00:00
TRACK 02 AUDIO
TITLE "Berd par"
PERFORMER "David Yengibarjan with Frank London"
ISRC 000000000000
INDEX 01 07:17:10
TRACK 03 AUDIO
TITLE "Hoy Noubar"
PERFORMER "David Yengibarjan with Frank London"
ISRC 000000000000
INDEX 01 12:23:04
TRACK 04 AUDIO
TITLE "Ararat"
PERFORMER "David Yengibarjan with Frank London"
ISRC 000000000000
INDEX 01 18:32:45
TRACK 05 AUDIO
TITLE "D'le yaman"
PERFORMER "David Yengibarjan with Frank London"
ISRC 000000000000
INDEX 01 24:52:68
TRACK 06 AUDIO
TITLE "Golem Khosidl"
PERFORMER "David Yengibarjan with Frank London"
ISRC 000000000000
INDEX 01 37:31:02
TRACK 07 AUDIO
TITLE "Pandoukht"
PERFORMER "David Yengibarjan with Frank London"
ISRC 000000000000
INDEX 01 45:25:31
TRACK 08 AUDIO
TITLE "Liliputien"
PERFORMER "David Yengibarjan with Frank London"
ISRC 000000000000
INDEX 01 51:03:05
 
Об исполнителе (группе)

David Yengibarjan родился в 1976 году в Ереване, Армения. Закончил музыкальную школу по классу аккордеона. С 1995 году, живет в Будапеште, его искусство по всему миру известно и признано. К тому же он и киноактёр, снимался во многих фильмах.
 
Об альбоме (сборнике)
Замечательная встреча многих культур в одном проекте, но всё же армянский дух здесь очень примечателен!
01:48
280
Нет комментариев. Ваш будет первым!