Поиск

2007 Antonio Adolfo e Carol Saboya - Ao Vivo (Live) {Points South ARCD 3009} [CD]

2007 Antonio Adolfo e Carol Saboya - Ao Vivo (Live) {Points South ARCD 3009} [CD]

01. Abertura (Ouverture) - Rhapsody in Blue, Aquarela do Brasil, Garota de Ipanema (Tom Jobim/ Vinicius de Moraes/ George Gershwin/ Ary Barroso) 03:23
02. Você e Eu (Carlos Lyra/ Vinicius de Moraes) 03:34
03. Fotografia (Tom Jobim) 03:59
04. Meu Limão, Meu Limoeiro / De Onde Vem o Baião / O Cantador (Folklore/ Gilberto Gil/ Dori Caymmi/ Nelson Motta) 04:40
05. Bonita (Tom Jobim/ Ray Gilbert) 03:28
06. Canto de Ossanha (Baden Powell/ Vinicius de Moraes) 04:30
07. Carinhoso / Bambino - Você Me Dá (Ernesto Nazareth/ Catulo da Paixão Cearense/ Pixinguinha/ João de Barro) 07:45
08. Insensatez (Tom Jobim/ Vinicius de Moraes) 04:21
09. Wave (Tom Jobim) 04:00
10. Passarim / Chovendo na Roseira (Tom Jobim/ Tom Jobim) 05:51
11. Sa Marina (Antonio Adolfo/ Tibério Gaspar) 03:13
12. Milagre (Dorival Caymmi) 04:39
13. Corrida de Jangada (Edu Lobo/ José Carlos Capinam) 03:24

Год издания диска: 2007
Издатель (лейбл): Points South
Номер по каталогу: ARCD 3009
Аудиокодек: FLAC (*.flac)
Тип рипа: image+.cue
Битрейт аудио: lossless
Продолжительность: 00: 50:47
Источник (релизер): rfccbh
Наличие сканов в содержимом раздачи: да
 

Состав:
  • VOCAL: Carol Saboya
  • PIANO: Antonio Adolfo
  • VIOLÃO E GUITARRA (ACOUSTIC AND ELECTRIC GUITAR): Claudio Spiewak
  • CONTRABAIXO (DOUBLE BASS): Gabriel Vivas
  • BATERIA (DRUMS): Carlomagno Araya
Лог создания рипа
EAC extraction logfile from 30. May 2007, 0:12 for CD
Antфnio Adolfo e Carol Saboya / Ao Vivo (Live)
Used drive  : HL-DT-STRW/DVD GCC-4520B   Adapter: 0  ID: 1
Read mode   : Secure with NO C2, accurate stream, disable cache
Read offset correction : 6
Overread into Lead-In and Lead-Out : No
Used output format : Internal WAV Routines
                     44.100 Hz; 16 Bit; Stereo
Other options      :
    Fill up missing offset samples with silence : Yes
    Delete leading and trailing silent blocks : No
    Installed external ASPI interface
Range status and errors
Selected range
     Filename D:\Antonio Adolfo e Carol Saboya - Ao Vivo (Live).wav
     Peak level 100.0 %
     Range quality 100.0 %
     CRC 35111D21
     Copy OK
No errors occured
End of status report
Содержание индексной карты (.CUE)
REM GENRE MPB
REM DATE 2006
REM DISCID D50BB10D
REM COMMENT "ExactAudioCopy v0.95b4"
PERFORMER "Antonio Adolfo e Carol Saboya"
TITLE "Ao Vivo (Live)"
FILE "Antonio Adolfo e Carol Saboya - Ao Vivo (Live).flac" WAVE
  TRACK 01 AUDIO
    TITLE "Abertura(Rhapsody in Blue, Aquarela, Garota de Ipanema)"
    PERFORMER "Antonio Adolfo e Carol Saboya"
    ISRC 0@4000100000
    INDEX 01 00:00:00
  TRACK 02 AUDIO
    TITLE "Voce e Eu"
    PERFORMER "Antnio Adolfo e Carol Saboya"
    ISRC 0P4004600032
    INDEX 01 03:23:06
  TRACK 03 AUDIO
    TITLE "Fotografia"
    PERFORMER "Antnio Adolfo e Carol Saboya"
    ISRC 0`4004600060
    INDEX 01 05:57:49
  TRACK 04 AUDIO
    TITLE "Meu Limao, Meu Limoeiro / De Onde Vem o Baiao / O Cantador"
    PERFORMER "Antonio Adolfo e Carol Saboya"
    ISRC 104004600085
    INDEX 01 08:57:27
  TRACK 05 AUDIO
    TITLE "Bonita"
    PERFORMER "Antonio Adolfo e Carol Saboya"
    ISRC 1@4004600124
    INDEX 01 12:37:64
  TRACK 06 AUDIO
    TITLE "Canto de Ossanha"
    PERFORMER "Antonio Adolfo e Carol Saboya"
    ISRC 1P4004600160
    INDEX 01 16:06:63
  TRACK 07 AUDIO
    TITLE "Carinhoso_Bambino - Voce Me Da"
    PERFORMER "Antonio Adolfo e Carol Saboya"
    ISRC 1`4004600193
    INDEX 01 19:37:26
  TRACK 08 AUDIO
    TITLE "Insensatez"
    PERFORMER "Antonio Adolfo e Carol Saboya"
    ISRC 204004600262
    INDEX 01 26:22:64
  TRACK 09 AUDIO
    TITLE "Wave"
    PERFORMER "Antonio Adolfo e Carol Saboya"
    ISRC 2@4004600304
    INDEX 01 30:44:08
  TRACK 10 AUDIO
    TITLE "Passarim_Chovendo na Roseira"
    PERFORMER "Antonio Adolfo e Carol Saboya"
    ISRC 2@4404600344
    INDEX 01 34:44:60
  TRACK 11 AUDIO
    TITLE "Sa Marina"
    PERFORMER "Antonio Adolfo e Carol Saboya"
    ISRC 4@4004600393
    INDEX 01 39:36:16
  TRACK 12 AUDIO
    TITLE "Milagre"
    PERFORMER "Antonio Adolfo e Carol Saboya"
    ISRC 4P4004600425
    INDEX 01 42:50:10
  TRACK 13 AUDIO
    TITLE "Corrida de Jangada"
    PERFORMER "Antonio Adolfo e Carol Saboya"
    ISRC 4`4004600463
    INDEX 01 46:29:41
01:46
651
Нет комментариев. Ваш будет первым!