Вы используете незарегистрированную версию компонента "Вкладки"!

Поиск

(Post-Bop) Raphael Imbert - NY Project - 2009, FLAC (tracks+.cue), lossless

Треклист:
Raphaël Imbert - NY Project
Жанр: Post-Bop
Год выпуска диска: 2009
Производитель диска: France (Oraison, Provence-Alpes-Côte d'A)
Аудио кодек: FLAC
Тип рипа: tracks+.cue
Битрейт аудио: lossless
Продолжительность: 01:08:26
Релиз: lightson (what.cd)
Список песен:
01. (07:37) Echoes of Harlem
02. (03:24) Lullaby from the beginning
03. (02:10) Cloister sanctuary introduction
04. (05:36) Cloister sanctuary
05. (08:22) Albert everywhere
06. (08:00) My Klezmer Dream
07. (04:03) Struggle for manhattan's life
08. (03:00) NYC breakdowncalling
09. (04:17) The Zen bowman - Prayer
10. (02:48) The Zen bowman - Surrender
11. (06:37) The Zen bowman - Target
12. (03:34) The Zen bowman - Arrow
13. (08:59) Central Park West
Состав группы:
Raphaël Imbert - saxophones soprano, alto, tenor
Joe Martin - contrebasse
Gerald Cleaver - batterie
 
Лог EAC
Exact Audio Copy V0.99 prebeta 5 from 4. May 2009
EAC extraction logfile from 17. September 2009, 16:28
Raphael Imbert / NY Project
Used drive : PHILIPS SPD3400CC Adapter: 3 ID: 2
Read mode : Secure
Utilize accurate stream : Yes
Defeat audio cache : Yes
Make use of C2 pointers : No
Read offset correction : 6
Overread into Lead-In and Lead-Out : No
Fill up missing offset samples with silence : Yes
Delete leading and trailing silent blocks : No
Null samples used in CRC calculations : Yes
Used interface : Installed external ASPI interface
Gap handling : Appended to previous track
Used output format : User Defined Encoder
Selected bitrate : 768 kBit/s
Quality : High
Add ID3 tag : No
Command line compressor : C:\Program Files\Exact Audio Copy pb5\Exact Audio Copy\Flac\flac.exe
Additional command line options : -6 -V -T "ARTIST=%a" -T "TITLE=%t" -T "ALBUM=%g" -T "DATE=%y" -T "TRACKNUMBER=%n" -T "GENRE=%m" -T "COMMENT=%e" %s -o %d
TOC of the extracted CD
Track | Start | Length | Start sector | End sector
---------------------------------------------------------
1 | 0:00.00 | 7:36.54 | 0 | 34253
2 | 7:36.54 | 3:23.68 | 34254 | 49546
3 | 11:00.47 | 2:10.29 | 49547 | 59325
4 | 13:11.01 | 5:36.17 | 59326 | 84542
5 | 18:47.18 | 8:21.66 | 84543 | 122183
6 | 27:09.09 | 8:00.05 | 122184 | 158188
7 | 35:09.14 | 4:03.09 | 158189 | 176422
8 | 39:12.23 | 3:00.11 | 176423 | 189933
9 | 42:12.34 | 4:16.52 | 189934 | 209185
10 | 46:29.11 | 2:47.61 | 209186 | 221771
11 | 49:16.72 | 6:36.50 | 221772 | 251521
12 | 55:53.47 | 3:34.28 | 251522 | 267599
13 | 59:28.00 | 8:58.66 | 267600 | 308015
Track 1
Filename C:\Raphael Imbert\01 - Echoes of Harlem.wav
Pre-gap length 0:00:02.00
Peak level 100.0 %
Track quality 100.0 %
Test CRC F0A64E1A
Copy CRC F0A64E1A
Track not present in AccurateRip database
Copy OK
Track 2
Filename C:\Raphael Imbert\02 - Lullaby from the beginning.wav
Pre-gap length 0:00:01.36
Peak level 100.0 %
Track quality 100.0 %
Test CRC 68237BCC
Copy CRC 68237BCC
Track not present in AccurateRip database
Copy OK
Track 3
Filename C:\Raphael Imbert\03 - Cloister sanctuary introduction.wav
Peak level 93.7 %
Track quality 100.0 %
Test CRC 376E1DB7
Copy CRC 376E1DB7
Track not present in AccurateRip database
Copy OK
Track 4
Filename C:\Raphael Imbert\04 - Cloister sanctuary.wav
Pre-gap length 0:00:00.10
Peak level 100.0 %
Track quality 100.0 %
Test CRC 16D9EEF3
Copy CRC 16D9EEF3
Track not present in AccurateRip database
Copy OK
Track 5
Filename C:\Raphael Imbert\05 - Albert everywhere.wav
Pre-gap length 0:00:00.73
Peak level 100.0 %
Track quality 100.0 %
Test CRC 284E8F39
Copy CRC 284E8F39
Track not present in AccurateRip database
Copy OK
Track 6
Filename C:\Raphael Imbert\06 - My Klezmer Dream.wav
Pre-gap length 0:00:00.32
Peak level 100.0 %
Track quality 100.0 %
Test CRC F7CAD08D
Copy CRC F7CAD08D
Track not present in AccurateRip database
Copy OK
Track 7
Filename C:\Raphael Imbert\07 - Struggle for manhattan's life.wav
Pre-gap length 0:00:01.89
Peak level 100.0 %
Track quality 100.0 %
Test CRC 99AC42D3
Copy CRC 99AC42D3
Track not present in AccurateRip database
Copy OK
Track 8
Filename C:\Raphael Imbert\08 - NYC breakdowncalling.wav
Pre-gap length 0:00:00.10
Peak level 100.0 %
Track quality 100.0 %
Test CRC AE022B69
Copy CRC AE022B69
Track not present in AccurateRip database
Copy OK
Track 9
Filename C:\Raphael Imbert\09 - The Zen bowman - Prayer.wav
Peak level 100.0 %
Track quality 99.9 %
Test CRC DB1450C3
Copy CRC DB1450C3
Track not present in AccurateRip database
Copy OK
Track 10
Filename C:\Raphael Imbert\10 - The Zen bowman - Surrender.wav
Peak level 100.0 %
Track quality 100.0 %
Test CRC F9F0E843
Copy CRC F9F0E843
Track not present in AccurateRip database
Copy OK
Track 11
Filename C:\Raphael Imbert\11 - The Zen bowman - Target.wav
Peak level 100.0 %
Track quality 100.0 %
Test CRC 4A1EEA09
Copy CRC 4A1EEA09
Track not present in AccurateRip database
Copy OK
Track 12
Filename C:\Raphael Imbert\12 - The Zen bowman - Arrow.wav
Pre-gap length 0:00:00.05
Peak level 100.0 %
Track quality 100.0 %
Test CRC E1927DED
Copy CRC E1927DED
Track not present in AccurateRip database
Copy OK
Track 13
Filename C:\Raphael Imbert\13 - Central Park West.wav
Pre-gap length 0:00:02.34
Peak level 100.0 %
Track quality 100.0 %
Test CRC 04891BFC
Copy CRC 04891BFC
Track not present in AccurateRip database
Copy OK
None of the tracks are present in the AccurateRip database
No errors occurred
End of status report
 
Спектральный анализ
Info
Raphaël Imbert, saxophonist and jazz composer, recipient of a ‘Villa Médicis hors les murs’ award for his research into sacred music and jazz, who won the 28th national jazz competition at La Défense in 2005 with his ensemble Newtopia.
Selfmade man, Raphaël Imbert started jazz at Marseille Conservatory with Philippe Renault and met there regional musicans with whom he plays regularly (Emile Atsas, Jean-Luc Difraja, Vincent Lafont, Pierre Fenichel...). He wins with Jean-Jacques Élangué the first price of Marseille Conservatory and creates 2 groups "Hemlé orchestra" and " Atsas imbert consort", with whom he will play in numerous festivals (Vienne, Nice, Fiesta des Suds, Théâtre des Salins...). He develops his taste for composition and the most eclectic musical situations. He creates a vision of music and jazz connected to spirituality very essential to the jazzman approach. For this purpose, he creates « Nine Spirit » to play "sacred music" of Duke Ellington, John Coltrane, Pharoah Sanders, Albert Ayler and others, and to produce shows which are inspired by powerful texts written by Théodore Monod, Amadou Hampatê Bâ, Martin Luther King ... Raphaël Imbert worked on a study focused on the Sacred in Jazz and becomes recipient of Villa Médicis Hors Les Murs, managed by AFAA and the french foreign affairs ministry which enabled him to stay in New York during october 2003. Raphaël Imbert develops many teaching project in Marseille Conservatory, at Festival Cluny and Fai’art. He belongs to the Orchestre National de Jazz administration board since september 2004 and wins the 28th national jazz competition at La Défense in 2005 with his ensemble Newtopia. He writes music for cinema and television for Philippe Carrése et Isabelle Boni-Claverie projects.
(c) myspace


Any questions -> support@pro-jazz.com. По всем вопросам пишите -> support@pro-jazz.com
15:21
127
Нет комментариев. Ваш будет первым!