Вы используете незарегистрированную версию компонента "Вкладки"!

Поиск

(Avant-Garde) Full Blast - Black Hole, FLAC (tracks+.cue), lossless

(Avant-Garde) Full Blast - Black Hole, FLAC (tracks+.cue), lossless
Треклист:
Full Blast - Black Hole
Жанр: Avant-Garde
Год выпуска диска: 2008
Производитель диска: Switzerland
Аудио кодек: FLAC
Тип рипа: tracks+.cue
Битрейт аудио: lossless
Продолжительность: 52:40
Трэклист:
1. Black Hole - 02:29
2. Suzy - 03:42
3. Bells - 06:29
4. Ellis - 03:44
5. String - 03:03
6. Atlas - 06:28
7. Protoneparcel - 10:38
8. Higgs - 04:29
9. Teilchencrash - 02:34
10. Large Hadron Collider - 06:01
11. Quarks Up/Down - 03:07
 
Доп. информация
Some of Peter Brotzmann's best records read like sinister metal album titles: Machine Gun, Dried Rat Dog, Dare Devil. And, for the most part, there's a shared aesthetic between the German's gruff saxophone skronk and the punishing shred of a thrash-metal band like Slayer. You could think of his new trio, Full Blast, as Last Exit minus guitarist Sonny Sharrock, but the focus is different here. Last Exit was a sprawling exploration of noise, but Full Blast's rhythm section keeps things maniacally tight: Michael Wertmuller injects muscular improv violence between honest-to-God blast beats, while electric bassist Marino Pliakas plays with ferocious speed. In tandem, Brotzmann's death-defying reed work plays off his cohorts with more dizzying trills and less of the elongated squawks for which he's known. More than any of Brotzmann's recent small groups, Full Blast feels like a complete unit, a unit hellbent on destruction. (Lars Gotrich, NPR Music)
 
EAC LOG
Exact Audio Copy V0.99 prebeta 4 from 23. January 2008
EAC extraction logfile from 15. April 2009, 20:01
Full Blast / Black Hole
Used drive : PLEXTOR CD-R PREMIUM2 Adapter: 3 ID: 0
Read mode : Secure
Utilize accurate stream : Yes
Defeat audio cache : Yes
Make use of C2 pointers : No
Read offset correction : 30
Overread into Lead-In and Lead-Out : Yes
Fill up missing offset samples with silence : Yes
Delete leading and trailing silent blocks : No
Null samples used in CRC calculations : Yes
Used interface : Native Win32 interface for Win NT & 2000
Gap handling : Appended to previous track
Used output format : User Defined Encoder
Selected bitrate : 128 kBit/s
Quality : High
Add ID3 tag : No
Command line compressor : D:\Programme\EAC099\Flac\flac.exe
Additional command line options : -5 -V -T "ARTIST=%a" -T "TITLE=%t" -T "ALBUM=%g" -T "DATE=%y" -T "TRACKNUMBER=%n" -T "TOTALTRACKS=%x" -T "GENRE=%m" -T "ALBUM ARTIST=%v" -T "ALBUMARTIST=%v" -T "COMMENT=EAC V0.99 prebeta 4, Secure Mode, Test & Copy, Accurat
TOC of the extracted CD
Track | Start | Length | Start sector | End sector
---------------------------------------------------------
1 | 0:00.00 | 2:28.48 | 0 | 11147
2 | 2:28.48 | 3:42.12 | 11148 | 27809
3 | 6:10.60 | 6:29.16 | 27810 | 57000
4 | 12:40.01 | 3:44.01 | 57001 | 73801
5 | 16:24.02 | 3:02.62 | 73802 | 87513
6 | 19:26.64 | 6:28.37 | 87514 | 116650
7 | 25:55.26 | 10:37.48 | 116651 | 164473
8 | 36:32.74 | 4:29.13 | 164474 | 184661
9 | 41:02.12 | 2:34.35 | 184662 | 196246
10 | 43:36.47 | 6:00.49 | 196247 | 223295
11 | 49:37.21 | 3:07.27 | 223296 | 237347
Track 1
Filename E:\Full Blast - Black Hole (2008) [FLAC] {Atavistic Records ALP187CD}\01 - Black Hole.wav
Pre-gap length 0:00:02.00
Peak level 100.0 %
Track quality 100.0 %
Test CRC 19FE8B40
Copy CRC 19FE8B40
Track not present in AccurateRip database
Copy OK
Track 2
Filename E:\Full Blast - Black Hole (2008) [FLAC] {Atavistic Records ALP187CD}\02 - Suzy.wav
Pre-gap length 0:00:02.00
Peak level 100.0 %
Track quality 99.9 %
Test CRC 2EFA762E
Copy CRC 2EFA762E
Track not present in AccurateRip database
Copy OK
Track 3
Filename E:\Full Blast - Black Hole (2008) [FLAC] {Atavistic Records ALP187CD}\03 - Bells.wav
Pre-gap length 0:00:02.00
Peak level 100.0 %
Track quality 100.0 %
Test CRC 3A8A6A17
Copy CRC 3A8A6A17
Track not present in AccurateRip database
Copy OK
Track 4
Filename E:\Full Blast - Black Hole (2008) [FLAC] {Atavistic Records ALP187CD}\04 - Ellis.wav
Pre-gap length 0:00:02.00
Peak level 100.0 %
Track quality 100.0 %
Test CRC BEB01B67
Copy CRC BEB01B67
Track not present in AccurateRip database
Copy OK
Track 5
Filename E:\Full Blast - Black Hole (2008) [FLAC] {Atavistic Records ALP187CD}\05 - String.wav
Pre-gap length 0:00:02.00
Peak level 100.0 %
Track quality 100.0 %
Test CRC 88FBB07B
Copy CRC 88FBB07B
Track not present in AccurateRip database
Copy OK
Track 6
Filename E:\Full Blast - Black Hole (2008) [FLAC] {Atavistic Records ALP187CD}\06 - Atlas.wav
Pre-gap length 0:00:02.00
Peak level 100.0 %
Track quality 99.9 %
Test CRC 98EFA0B1
Copy CRC 98EFA0B1
Track not present in AccurateRip database
Copy OK
Track 7
Filename E:\Full Blast - Black Hole (2008) [FLAC] {Atavistic Records ALP187CD}\07 - Protoneparcel.wav
Pre-gap length 0:00:02.00
Peak level 100.0 %
Track quality 100.0 %
Test CRC 2E8F776C
Copy CRC 2E8F776C
Track not present in AccurateRip database
Copy OK
Track 8
Filename E:\Full Blast - Black Hole (2008) [FLAC] {Atavistic Records ALP187CD}\08 - Higgs.wav
Pre-gap length 0:00:02.00
Peak level 100.0 %
Track quality 100.0 %
Test CRC CEB0AA55
Copy CRC CEB0AA55
Track not present in AccurateRip database
Copy OK
Track 9
Filename E:\Full Blast - Black Hole (2008) [FLAC] {Atavistic Records ALP187CD}\09 - Teilchencrash.wav
Pre-gap length 0:00:02.00
Peak level 100.0 %
Track quality 100.0 %
Test CRC F76407ED
Copy CRC F76407ED
Track not present in AccurateRip database
Copy OK
Track 10
Filename E:\Full Blast - Black Hole (2008) [FLAC] {Atavistic Records ALP187CD}\10 - Large Hadron Collider.wav
Pre-gap length 0:00:02.00
Peak level 100.0 %
Track quality 100.0 %
Test CRC 30E49B5E
Copy CRC 30E49B5E
Track not present in AccurateRip database
Copy OK
Track 11
Filename E:\Full Blast - Black Hole (2008) [FLAC] {Atavistic Records ALP187CD}\11 - Quarks Up-Down.wav
Pre-gap length 0:00:03.49
Peak level 100.0 %
Track quality 100.0 %
Test CRC 5F395724
Copy CRC 5F395724
Track not present in AccurateRip database
Copy OK
None of the tracks are present in the AccurateRip database
No errors occurred
End of status report
Any questions -> support@pro-jazz.com. По всем вопросам пишите -> support@pro-jazz.com
15:20
149
Нет комментариев. Ваш будет первым!