Вы используете незарегистрированную версию компонента "Вкладки"!

Поиск

(Post-Bop / Modern Creative) Ben Goldberg - Go Home - 2009, FLAC (image+.cue), lossless

(Post-Bop / Modern Creative) Ben Goldberg - Go Home - 2009, FLAC (image+.cue), lossless
Треклист:
Ben Goldberg - Go Home
Жанр: Post-Bop / Modern Creative
Год выпуска диска: 2009
Производитель диска: USA (BAG Production BAG001)
Аудио кодек: FLAC
Тип рипа: image+.cue
Битрейт аудио: lossless
Продолжительность: 1:12:25
Ben Goldberg clarinet
Charlie Hanter 7 string guitar
Scott Amendola drums
Ron Miles cornet, G trumpet
1. TGO
2. Wazee
3. Lace
4. Root and Branch
5. Head and Tails
6. Ethan's Song
7. Inevitable
8. Isosceles
9. Reparation
10. Papermaker

 
EAC Report
Exact Audio Copy V0.99 prebeta 5 from 4. May 2009
EAC extraction logfile from 10. October 2009, 20:43
Ben Goldberg / Go Home
Used drive : TSSTcorpCD/DVDW SH-S182M Adapter: 2 ID: 0
Read mode : Secure
Utilize accurate stream : Yes
Defeat audio cache : Yes
Make use of C2 pointers : No
Read offset correction : 6
Overread into Lead-In and Lead-Out : No
Fill up missing offset samples with silence : Yes
Delete leading and trailing silent blocks : No
Null samples used in CRC calculations : Yes
Used interface : Installed external ASPI interface
Used output format : User Defined Encoder
Selected bitrate : 1024 kBit/s
Quality : High
Add ID3 tag : No
Command line compressor : C:\Program Files\FLAC\flac.exe
Additional command line options : -6 -V -T "ARTIST=%a" -T "TITLE=%t" -T "ALBUM=%g" -T "DATE=%y" -T "TRACKNUMBER=%n" -T "GENRE=%m" -T "COMMENT=EAC FLAC -6" %s
TOC of the extracted CD
Track | Start | Length | Start sector | End sector
---------------------------------------------------------
1 | 0:00.00 | 5:31.52 | 0 | 24876
2 | 5:31.52 | 6:10.47 | 24877 | 52673
3 | 11:42.24 | 7:03.38 | 52674 | 84436
4 | 18:45.62 | 9:13.07 | 84437 | 125918
5 | 27:58.69 | 9:26.74 | 125919 | 168442
6 | 37:25.68 | 8:09.65 | 168443 | 205182
7 | 45:35.58 | 5:32.59 | 205183 | 230141
8 | 51:08.42 | 9:17.20 | 230142 | 271936
9 | 60:25.62 | 5:35.59 | 271937 | 297120
10 | 66:01.46 | 6:23.41 | 297121 | 325886
Range status and errors
Selected range
Filename C:\Documents and Settings\Igor\My Documents\My Music\eac\Ben Goldberg - Go Home.wav
Peak level 99.3 %
Range quality 100.0 %
Test CRC 6CE52C0A
Copy CRC 6CE52C0A
Copy OK
No errors occurred
AccurateRip summary
Track 1 not present in database
Track 2 not present in database
Track 3 not present in database
Track 4 not present in database
Track 5 not present in database
Track 6 not present in database
Track 7 not present in database
Track 8 not present in database
Track 9 not present in database
Track 10 not present in database
None of the tracks are present in the AccurateRip database
End of status report
Any questions -> support@pro-jazz.com. По всем вопросам пишите -> support@pro-jazz.com
15:22
132
Нет комментариев. Ваш будет первым!