Вы используете незарегистрированную версию компонента "Вкладки"!

Поиск

(Free / Avant-Garde) Vinny Golia / Bertram Turetzky - 11 Reasons To Begin - 1996, FLAC (image+.cue), lossless

(Free / Avant-Garde) Vinny Golia / Bertram Turetzky - 11 Reasons To Begin - 1996, FLAC (image+.cue), lossless
Треклист:
Vinny Golia / Bertram Turetzky - 11 Reasons To Begin
Жанр: Free / Avant-Garde
Год выпуска диска: 1996
Производитель диска: USA (Music and Arts 966)
Аудио кодек: FLAC
Тип рипа: image+.cue
Битрейт аудио: lossless
Продолжительность: 1:10:40
Vinny Golia woodwinds, ethnic aerophones
Bertram Turetzky contrabass
1. 2 In 1
2. Dialogue
3. Doubles
4. Triologue
5. How Many Sunsets?
6. Songs For R.E.
7. Green
8. Music For Bass Clarinet
9. An Existential Prelude
10. Wind Songs
11. Hymn For Her

 
AMG Review
These dialogues between Vinny Golia (switching between many reed instruments, some of which are quite exotic) and bassist Bertram Turetzky (superb with his bow) are generally sparse, make expert use of space, and develop slowly. Many of the performances are more mellow than expected, with Golia showing off the sound of his various instruments while Turetzky offers commentary. However, Golia's occasional explosions can be rather abrasive and shocking, breaking up the introspective mood. Truth is, few of these pieces develop much beyond setting a mood and after a while, the music is a bit tedious, easier to admire than to love. ~ Scott Yanow, AMG
 
EAC Report
Exact Audio Copy V0.99 prebeta 4 from 23. January 2008
EAC extraction logfile from 26. July 2009, 19:16
Vinny Golia / Bertram Turetzky / 11 Reasons To Begin
Used drive : TSSTcorpCD/DVDW SH-S182M Adapter: 2 ID: 0
Read mode : Secure
Utilize accurate stream : Yes
Defeat audio cache : Yes
Make use of C2 pointers : No
Read offset correction : 6
Overread into Lead-In and Lead-Out : No
Fill up missing offset samples with silence : Yes
Delete leading and trailing silent blocks : No
Null samples used in CRC calculations : Yes
Used interface : Installed external ASPI interface
Used output format : User Defined Encoder
Selected bitrate : 1024 kBit/s
Quality : High
Add ID3 tag : No
Command line compressor : C:\Program Files\Exact Audio Copy\FLAC\FLAC.EXE
Additional command line options : -6 -V -T "ARTIST=%a" -T "TITLE=%t" -T "ALBUM=%g" -T "DATE=%y" -T "TRACKNUMBER=%n" -T "GENRE=%m" -T "COMMENT=%e" %s -o %d
TOC of the extracted CD
Track | Start | Length | Start sector | End sector
---------------------------------------------------------
1 | 0:00.00 | 6:09.02 | 0 | 27676
2 | 6:09.02 | 4:40.00 | 27677 | 48676
3 | 10:49.02 | 8:04.68 | 48677 | 85044
4 | 18:53.70 | 10:54.45 | 85045 | 134139
5 | 29:48.40 | 9:33.47 | 134140 | 177161
6 | 39:22.12 | 5:07.28 | 177162 | 200214
7 | 44:29.40 | 7:20.55 | 200215 | 233269
8 | 51:50.20 | 3:57.07 | 233270 | 251051
9 | 55:47.27 | 2:39.00 | 251052 | 262976
10 | 58:26.27 | 6:10.30 | 262977 | 290756
11 | 64:36.57 | 6:03.23 | 290757 | 318004
Range status and errors
Selected range
Filename C:\Documents and Settings\Igor\My Documents\My Music\eac\Vinny Golia & Bertram Turetzky - 11 Reasons To Begin.wav
Peak level 95.2 %
Range quality 100.0 %
Test CRC C3E899AE
Copy CRC C3E899AE
Copy OK
No errors occurred
AccurateRip summary
Track 1 not present in database
Track 2 not present in database
Track 3 not present in database
Track 4 not present in database
Track 5 not present in database
Track 6 not present in database
Track 7 not present in database
Track 8 not present in database
Track 9 not present in database
Track 10 not present in database
Track 11 not present in database
None of the tracks are present in the AccurateRip database
End of status report
По всем вопросам пишите личное сообщение пользователю M0p94ok.
15:22
145
Нет комментариев. Ваш будет первым!