Поиск

(Post-Bop, Latin Jazz) David Sanchez - The Departure - 1995, APE (image+.cue), lossless

(Post-Bop, Latin Jazz) David Sanchez - The Departure - 1995, APE (image+.cue), lossless
Треклист:
David Sanchez - The Departure
Жанр: Post-Bop, Latin Jazz
Год выпуска диска: 1995
Производитель диска: USA
Аудио кодек: APE
Тип рипа: image+.cue
Битрейт аудио: lossless
Продолжительность: 74:53
Источник:Jazz forum ,releaser -Binki
Трэклист:
01 Ebony
02 Woody 'N You
03 Interlude #1
04 You Got It, Diz!
05 Santander
06 I'll Be Around
07 The Departure
08 Nina's Mood
09 Cara de Payaso
10 Interlude #2
11 CJ
12 Postlude

Personnel:
David Sanchez (soprano saxophone, tenor saxophone);
Tom Harrell (trumpet);
Danilo Perez (piano);
Peter Washington, Andy Gonzalez (bass);
Leon Parker (drums);
Milton Cardona (percussion)
 
EAC
Exact Audio Copy V0.99 prebeta 4 from 23. January 2008
EAC extraction logfile from 19. May 2009, 19:14
David Sanchez / The Departure
Used drive : HL-DT-STDVD-RAM GH22NP20 Adapter: 1 ID: 1
Read mode : Secure
Utilize accurate stream : Yes
Defeat audio cache : Yes
Make use of C2 pointers : No
Read offset correction : 102
Overread into Lead-In and Lead-Out : No
Fill up missing offset samples with silence : Yes
Delete leading and trailing silent blocks : No
Null samples used in CRC calculations : Yes
Used interface : Installed external ASPI interface
Used output format : Internal WAV Routines
Sample format : 44.100 Hz; 16 Bit; Stereo
Use compression offset : 102
TOC of the extracted CD
Track | Start | Length | Start sector | End sector
---------------------------------------------------------
1 | 0:00.00 | 6:48.73 | 0 | 30672
2 | 6:48.73 | 9:02.50 | 30673 | 71372
3 | 15:51.48 | 0:43.00 | 71373 | 74597
4 | 16:34.48 | 6:56.37 | 74598 | 105834
5 | 23:31.10 | 7:19.55 | 105835 | 138814
6 | 30:50.65 | 7:40.38 | 138815 | 173352
7 | 38:31.28 | 9:39.70 | 173353 | 216847
8 | 48:11.23 | 8:22.12 | 216848 | 254509
9 | 56:33.35 | 7:30.43 | 254510 | 288302
10 | 64:04.03 | 0:38.70 | 288303 | 291222
11 | 64:42.73 | 8:25.55 | 291223 | 329152
Range status and errors
Selected range
Filename C:\Documents and Settings\Proprietario.RT\Desktop\R\David Sanchez - The Departure.wav
Peak level 100.0 %
Range quality 100.0 %
Copy CRC 46949B12
Copy OK
No errors occurred
End of status report
По всем вопросам пишите личное сообщение пользователю M0p94ok.
08:55
238
Нет комментариев. Ваш будет первым!