Поиск

(Jazz / Vocal Jazz) Astrud Gilberto - The Diva Series (Compilation) - 2003, FLAC (image+.cue), lossless

(Jazz / Vocal Jazz) Astrud Gilberto - The Diva Series (Compilation) - 2003, FLAC (image+.cue), lossless
Треклист:
Astrud Gilberto - The Diva Series (Compilation)
Жанр: Jazz / Vocal Jazz
Год выпуска диска: 2003
Производитель диска: USA, Verve Records
Аудио кодек: FLAC
Тип рипа: image+.cue
Битрейт аудио: lossless
Продолжительность: 59:16
Трэклист:
1. Agua de Beber (2:18)
2. Bim Bom (1:50)
3. Tu Mi Delirio (3:38)
4. The Girl From Ipanema (5:22)
5. On My Mind (2:41)
6. Misty Roses (2:37)
7. Manha de Carnival (1:55)
8. Non-Stop to Brazil (2:26)
9. I Haven't Got Anything Better to Do (2:56)
10. Corcovado (Quiet Nights of Quiet Stars) (4:13)
11. Eu e Voce (Me and You) (2:24)
12. The Gentle Rain (2:23)
13. So Nice (Summer Samba) (2:39)
14. Berimbau (2:26)
15. Once Upon a Summertime (3:04)
16. All That's Left Is to Say Goodbye (3:12)
17. Dindi (2:41)
18. Stay (2:42)
19. Canoeiro (1:33)
20. A Certain Sadness (3:10)
21. Canto de Ossanha (Let Go) (3:06)
 
EAC log
Exact Audio Copy V0.99 prebeta 5 from 4. May 2009
Отчёт EAC об извлечении, выполненном 23. ноября 2009, 18:45
Astrud Gilberto / The Diva Series
Дисковод: Optiarc DVD RW AD-7593A Adapter: 1 ID: 0
Режим чтения : Достоверность
Использование точного потока : Да
Отключение кэша аудио : Да
Использование указателей C2 : Нет
Коррекция смещения при чтении : 48
Способность читать области Lead-in и Lead-out : Нет
Заполнение пропущенных сэмплов тишиной : Да
Удаление блоков с тишиной в начале и конце : Нет
При вычислениях CRC использовались нулевые сэмплы : Да
Интерфейс : Встроенный Win32-интерфейс для Win NT/2000
Выходной формат : Пользовательский кодировщик
Выбранный битрейт : 1024 kBit/s
Качество : Высокий
Добавление ID3-тэга : Нет
Утилита сжатия : C:\Program Files\Exact Audio Copy\FLAC\FLAC.EXE
Дополнительные параметры : -6 -V -T "ARTIST=%a" -T "TITLE=%t" -T "ALBUM=%g" -T "DATE=%y" -T "TRACKNUMBER=%n" -T "GENRE=%m" -T "COMMENT=%e" %s -o %d
TOC извлечённого CD
Трек | Старт | Длительность | Начальный сектор | Конечный сектор
---------------------------------------------------------------------
1 | 0:00.00 | 2:19.62 | 0 | 10486
2 | 2:19.62 | 1:51.53 | 10487 | 18864
3 | 4:11.40 | 3:39.67 | 18865 | 35356
4 | 7:51.32 | 5:24.28 | 35357 | 59684
5 | 13:15.60 | 2:42.17 | 59685 | 71851
6 | 15:58.02 | 2:38.53 | 71852 | 83754
7 | 18:36.55 | 1:56.57 | 83755 | 92511
8 | 20:33.37 | 2:25.60 | 92512 | 103446
9 | 22:59.22 | 2:55.53 | 103447 | 116624
10 | 25:55.00 | 4:14.65 | 116625 | 135739
11 | 30:09.65 | 2:26.15 | 135740 | 146704
12 | 32:36.05 | 2:24.52 | 146705 | 157556
13 | 35:00.57 | 2:39.20 | 157557 | 169501
14 | 37:40.02 | 2:24.68 | 169502 | 180369
15 | 40:04.70 | 3:05.20 | 180370 | 194264
16 | 43:10.15 | 3:12.45 | 194265 | 208709
17 | 46:22.60 | 2:42.22 | 208710 | 220881
18 | 49:05.07 | 2:41.53 | 220882 | 233009
19 | 51:46.60 | 1:34.47 | 233010 | 240106
20 | 53:21.32 | 3:09.55 | 240107 | 254336
21 | 56:31.12 | 3:06.40 | 254337 | 268326
Характеристики диапазона извлечения и сообщения об ошибках
Выбранный диапазон
Имя файла D:\Music, video\MP3\The Diva Series\2003 - Astrud Gilberto - The Diva Series\Astrud Gilberto - The Diva Series.wav
Пиковый уровень 98.8 %
Качество диапазона 99.9 %
CRC копии 44A0E3B7
Копирование... OK
Ошибок не произошло
AccurateRip: сводка
Трек 1 точность не определена (достоверность 13) [FFD71CF2], AccurateRip вернул [1444CFEC]
Трек 2 точность не определена (достоверность 14) [5D3CE791], AccurateRip вернул [F8E97478]
Трек 3 точность не определена (достоверность 14) [FBEF8480], AccurateRip вернул [A4A9513B]
Трек 4 точность не определена (достоверность 13) [3183BD5A], AccurateRip вернул [3FBDE1F0]
Трек 5 точность не определена (достоверность 13) [FD9120E4], AccurateRip вернул [09ABCBAE]
Трек 6 точность не определена (достоверность 13) [89C945F6], AccurateRip вернул [7CEE3C5B]
Трек 7 точность не определена (достоверность 12) [E8B4EC72], AccurateRip вернул [44190219]
Трек 8 точность не определена (достоверность 13) [E9EA521D], AccurateRip вернул [85E851AD]
Трек 9 точность не определена (достоверность 13) [3D700A0D], AccurateRip вернул [3EBA1849]
Трек 10 точность не определена (достоверность 12) [98E593BA], AccurateRip вернул [B4EE7E65]
Трек 11 точность не определена (достоверность 12) [B3C10A0E], AccurateRip вернул [619D8CF3]
Трек 12 точность не определена (достоверность 12) [5670C346], AccurateRip вернул [9661456A]
Трек 13 точность не определена (достоверность 12) [805C1FCC], AccurateRip вернул [099084BC]
Трек 14 точность не определена (достоверность 13) [050EEB8A], AccurateRip вернул [AFD118FE]
Трек 15 точность не определена (достоверность 13) [CDFD3C3C], AccurateRip вернул [D2280074]
Трек 16 точность не определена (достоверность 12) [204EDD1A], AccurateRip вернул [C2E95815]
Трек 17 точность не определена (достоверность 12) [687B2854], AccurateRip вернул [8544CEB0]
Трек 18 точность не определена (достоверность 12) [92DF8C71], AccurateRip вернул [2EEA189C]
Трек 19 точность не определена (достоверность 13) [706EE548], AccurateRip вернул [C44BB397]
Трек 20 точность не определена (достоверность 12) [7394ED1F], AccurateRip вернул [8989914A]
Трек 21 точность не определена (достоверность 11) [6EFB4516], AccurateRip вернул [03EBF83A]
Ни один трек не прошёл проверки на точность
В вашей базе может быть иной вариант штамповки диска
Конец отчёта
 
Folder content
2003 - Astrud Gilberto - The Diva Series\Covers\Back_1.jpg
2003 - Astrud Gilberto - The Diva Series\Covers\Back_2.jpg
2003 - Astrud Gilberto - The Diva Series\Covers\CD.jpg
2003 - Astrud Gilberto - The Diva Series\Covers\Inlay_1.jpg
2003 - Astrud Gilberto - The Diva Series\Covers\Inlay_2.jpg
2003 - Astrud Gilberto - The Diva Series\Covers\Inlay_3.jpg
2003 - Astrud Gilberto - The Diva Series\Covers\Inlay_4.jpg
2003 - Astrud Gilberto - The Diva Series\Covers\Verve promo booklet_1.jpg
2003 - Astrud Gilberto - The Diva Series\Covers\Verve promo booklet_2.jpg
Astrud Gilberto - The Diva Series.cue
Astrud Gilberto - The Diva Series.flac
The Diva Series.log
Доп. информация:
 
Personnel:
Astrud Gilberto - Vocal
Kenny Burrell - Guitar
Stan Getz - Tenor Saxophone
Antonio Carlos Jobim - Guitar
Walter Wanderley - Piano, Organ
Original recording produced by Brooks Arthur (tracks 9 and 21), Pete Spargo (track 5), and Creed Taylor (tracks 1-4, 6-8, and 10-20).
Selected and Sequenced by George Evans
Supervised by Bryan Koniarz
Свершилось! После длительного ожидания серия The Diva Series полностью укомплектована.
Выкладываю следующий диск. На этой компиляции собраны композиции в исполнении Astrud Gilberto. Записи сделаны в период с 19 марта 1963 г. по 17 декабря 1969 г.
Немного о компиляции: 20 мая 2003 года компания Verve Records сделала подарок всем любителям джаза, выпустив серию из 10 дисков под названием The Diva Series. В этой серии выпущены диски Sarah Vaughan, Nina Simone, Ella Fitzgerald, Dinah Washington, Carmen McRae, Blossom Dearie, Billie Holiday, Astrud Gilberto, Anita O'Day и сборник The Ultimate Diva Collection, в котором представлены все вышеперечисленные звезды.
Здесь есть Anita O'Day. А тут сборник The Ultimate Diva Collection.
По всем вопросам пишите личное сообщение пользователю M0p94ok.
08:55
258
Нет комментариев. Ваш будет первым!