Поиск

(Bossa Nova/Latin Jazz) Joao Bosco - Acustico (Unplugged) - 1992, FLAC (image+.cue), lossless

Треклист:
João Bosco - Acústico (Unplugged)
Жанр: Bossa Nova/Latin Jazz
Год выпуска диска: 1992
Производитель диска: Sony Music Entertainment (Brasil) I. C. L. (Columbia) - 852.024/2-464299 - Brazil
Аудио кодек: FLAC
Тип рипа: image+.cue
Битрейт аудио: lossless
Продолжительность: 40:51
Трэклист:
1. Odilê Odilá / Zona De Fronteira
2. Holofotes
3. Papel Machê
4. Granito / Jade
5. Quilombo / Tiro De Misericórdia/Escadas Da Penha
6. Memória Da Pele
7. E Então Que Quereis...? / Corsário
8. Eleanor Rigby / Fita Amarela / Trem Bala
 
Scans
 
EAC Log
Exact Audio Copy V0.99 prebeta 5 from 4. May 2009
EAC extraction logfile from 27. November 2009, 21:34
João Bosco / MTV Acústico
Used drive : HL-DT-STDVDRAM GH20NS15 Adapter: 0 ID: 0
Read mode : Secure
Utilize accurate stream : Yes
Defeat audio cache : Yes
Make use of C2 pointers : No
Read offset correction : 667
Overread into Lead-In and Lead-Out : No
Fill up missing offset samples with silence : Yes
Delete leading and trailing silent blocks : No
Null samples used in CRC calculations : Yes
Used interface : Installed external ASPI interface
Used output format : User Defined Encoder
Selected bitrate : 1024 kBit/s
Quality : High
Add ID3 tag : No
Command line compressor : C:\Program Files\Exact Audio Copy\Flac\flac.exe
Additional command line options : -8 -A tukey(0.25) -A gauss(0.1875) -b 4096 -V -T "artist=%a" -T "title=%t" -T "album=%g" -T "date=%y" -T "tracknumber=%n" -T "genre=%m" %s --sector-align
TOC of the extracted CD
Track | Start | Length | Start sector | End sector
---------------------------------------------------------
1 | 0:00.32 | 6:59.38 | 32 | 31494
2 | 6:59.70 | 2:52.50 | 31495 | 44444
3 | 9:52.45 | 4:26.35 | 44445 | 64429
4 | 14:19.05 | 4:56.15 | 64430 | 86644
5 | 19:15.20 | 7:32.65 | 86645 | 120609
6 | 26:48.10 | 3:13.17 | 120610 | 135101
7 | 30:01.27 | 5:28.65 | 135102 | 159766
8 | 35:30.17 | 5:20.58 | 159767 | 183824
Range status and errors
Selected range
Filename D:\Torrents.ru\João Bosco\João Bosco - Acústico\João Bosco - Acústico.wav
Peak level 93.3 %
Range quality 99.9 %
Test CRC CE5CB914
Copy CRC CE5CB914
Copy OK
No errors occurred
AccurateRip summary
Track 1 cannot be verified as accurate (confidence 2) [506BDE1E], AccurateRip returned [31D151BE]
Track 2 cannot be verified as accurate (confidence 2) [6369198B], AccurateRip returned [A3589E55]
Track 3 cannot be verified as accurate (confidence 2) [9C5202FA], AccurateRip returned [AF1A6510]
Track 4 cannot be verified as accurate (confidence 2) [05425050], AccurateRip returned [5454C0B2]
Track 5 cannot be verified as accurate (confidence 2) [7E1903CC], AccurateRip returned [25CA729A]
Track 6 cannot be verified as accurate (confidence 2) [C0F804C7], AccurateRip returned [8A39011C]
Track 7 cannot be verified as accurate (confidence 2) [33DBBD87], AccurateRip returned [1A648A86]
Track 8 cannot be verified as accurate (confidence 2) [1098F5BF], AccurateRip returned [9C29D1AA]
No tracks could be verified as accurate
You may have a different pressing from the one(s) in the database
End of status report
 
Audiochecker
AUDIOCHECKER v2.0 beta (build 457) - by Dester - opdester@freemail.hu
~~~~~~~~~~~~~~~~~~~~~~~~~~~~~~~~~~
-=== DO NOT EDIT THIS FILE! ===-
Path: ...\João Bosco - Acústico
1 -=- João Bosco - Acústico.flac -=- CDDA (99%)
93867572
 
Tau Analyzer
Download available for power users only.
08:56
249
Нет комментариев. Ваш будет первым!