Поиск

(Funk, Jazz, Brazil) Arthur Verocai - Arthur Verocai (Reissued, 2003), FLAC (tracks+.cue), lossless

Треклист:
Arthur Verocai - Arthur Verocai
Жанр: Funk, Jazz, Brazil
Год выпуска диска: 2003
Производитель диска: US
Аудио кодек: FLAC
Тип рипа: tracks+.cue
Битрейт аудио: lossless
Трэклист:
1 Caboclo 2:48
2 Pelas Sombras 2:13
3 Sylvia 2:59
4 Presente Greco 2:29
5 Dedicada A Ela 3:30
6 Seriado 1:40
7 Na Boca Do Sol 2:52
8 Velho Parente 2:17
9 O Mapa 2:38
10 Karina (Domingo No Grajaú) 5:14
Доп. информация:
 
EAC
Exact Audio Copy V0.99 prebeta 3 from 28. July 2007
EAC extraction logfile from 24. January 2009, 19:13
Arthur Verocai / Arthur Verocai
Used drive : HL-DT-STDVDRAM GSA-4163B Adapter: 1 ID: 1
Read mode : Secure
Utilize accurate stream : Yes
Defeat audio cache : Yes
Make use of C2 pointers : No
Read offset correction : 667
Overread into Lead-In and Lead-Out : No
Fill up missing offset samples with silence : Yes
Delete leading and trailing silent blocks : No
Null samples used in CRC calculations : Yes
Used interface : Native Win32 interface for Win NT & 2000
Gap handling : Appended to previous track
Used output format : User Defined Encoder
Selected bitrate : 128 kBit/s
Quality : High
Add ID3 tag : No
Command line compressor : C:\Programme\Exact Audio Copy\flac.exe
Additional command line options : -V -8 -T "artist=%a" -T "title=%t" -T "album=%g" -T "date=%y" -T "tracknumber=%n" -T "genre=%m" %s
TOC of the extracted CD
Track | Start | Length | Start sector | End sector
---------------------------------------------------------
1 | 0:00.00 | 2:52.08 | 0 | 12907
2 | 2:52.08 | 2:15.60 | 12908 | 23092
3 | 5:07.68 | 3:02.23 | 23093 | 36765
4 | 8:10.16 | 2:31.40 | 36766 | 48130
5 | 10:41.56 | 3:33.04 | 48131 | 64109
6 | 14:14.60 | 1:44.67 | 64110 | 71976
7 | 15:59.52 | 2:53.66 | 71977 | 85017
8 | 18:53.43 | 2:19.41 | 85018 | 95483
9 | 21:13.09 | 2:41.69 | 95484 | 107627
10 | 23:55.03 | 5:16.33 | 107628 | 131360
Track 1
Filename H:\Arthur Verocai - Arthur Verocai (2003) [FLAC]\01 - Caboclo.wav
Pre-gap length 0:00:02.00
Peak level 100.0 %
Track quality 100.0 %
Test CRC 03F8018C
Copy CRC 03F8018C
Copy OK
Track 2
Filename H:\Arthur Verocai - Arthur Verocai (2003) [FLAC]\02 - Pelas Sombras.wav
Peak level 99.9 %
Track quality 99.9 %
Test CRC 4BCAF50A
Copy CRC 4BCAF50A
Copy OK
Track 3
Filename H:\Arthur Verocai - Arthur Verocai (2003) [FLAC]\03 - Sylvia.wav
Peak level 99.9 %
Track quality 99.9 %
Test CRC 72F9E072
Copy CRC 72F9E072
Copy OK
Track 4
Filename H:\Arthur Verocai - Arthur Verocai (2003) [FLAC]\04 - Presente Grego.wav
Peak level 100.0 %
Track quality 100.0 %
Test CRC 5A699DE5
Copy CRC 5A699DE5
Copy OK
Track 5
Filename H:\Arthur Verocai - Arthur Verocai (2003) [FLAC]\05 - Dedicada A Ela.wav
Peak level 100.0 %
Track quality 100.0 %
Test CRC 244289BC
Copy CRC 244289BC
Copy OK
Track 6
Filename H:\Arthur Verocai - Arthur Verocai (2003) [FLAC]\06 - Seriado.wav
Peak level 100.0 %
Track quality 100.0 %
Test CRC F5949710
Copy CRC F5949710
Copy OK
Track 7
Filename H:\Arthur Verocai - Arthur Verocai (2003) [FLAC]\07 - Na Boca Do Sol.wav
Peak level 100.0 %
Track quality 100.0 %
Test CRC 79C94A07
Copy CRC 79C94A07
Copy OK
Track 8
Filename H:\Arthur Verocai - Arthur Verocai (2003) [FLAC]\08 - Velho Parente.wav
Peak level 100.0 %
Track quality 100.0 %
Test CRC 0BC1F7CF
Copy CRC 0BC1F7CF
Copy OK
Track 9
Filename H:\Arthur Verocai - Arthur Verocai (2003) [FLAC]\09 - O Mapa.wav
Peak level 99.7 %
Track quality 100.0 %
Test CRC 82C291D4
Copy CRC 82C291D4
Copy OK
Track 10
Filename H:\Arthur Verocai - Arthur Verocai (2003) [FLAC]\10 - Karina (Domingo No Graja�).wav
Peak level 100.0 %
Track quality 100.0 %
Test CRC 8206DB7E
Copy CRC 8206DB7E
Copy OK
No errors occurred
End of status report
Download available for power users only.
08:54
207
Нет комментариев. Ваш будет первым!