Поиск

(Latin Jazz / Vocal Jazz) Claudia Acuna - Luna - 2004, FLAC (tracks+.cue), lossless

(Latin Jazz / Vocal Jazz) Claudia Acuna - Luna - 2004, FLAC (tracks+.cue), lossless
Треклист:
Claudia Acuna - Luna
Жанр: Latin Jazz / Vocal Jazz
Год выпуска : 2004
Лейбл: MAXJAZZ
Аудио кодек: FLAC
Тип рипа: tracks+.cue
Битрейт аудио: lossless
Продолжительность: 00:51:21
Рип: What CD


01. Esta Tarde Vi Llover (5:52)
02. Yesterday You And I (3:20)
03. Tú, Mi Delirio (5:10)
04. Arrímate Mi Amor (5:37)
05. Historias (3:32)
06. Chorado (4:16)
07. A Meditation On Two Chords (5:13)
08. Océano (6:10)
09. Yo No Llevo La Razón (4:42)
10. Lilas (3:53)
11. Carita De Luna (3:35)

 
EAC
EAC extraction logfile from 13. September 2008, 15:25 for CD
Claudia Acuсa / Luna
Used drive : LITE-ON DVDRW LH-20A1L Adapter: 0 ID: 1
Read mode : Secure with NO C2, accurate stream, disable cache
Read offset correction : 6
Overread into Lead-In and Lead-Out : No
Used output format : C:\Program Files\Exact Audio Copy\flac.exe (User Defined Encoder)
192 kBit/s
Additional command line options : -V -8 -T "artist=%a" -T "title=%t" -T "album=%g" -T "date=%y" -T "tracknumber=%n" -T "genre=%m" %s
Other options :
Fill up missing offset samples with silence : Yes
Delete leading and trailing silent blocks : No
Installed external ASPI interface
Track 1
Filename H:\FLAC\Claudia Acuсa\Claudia Acuсa - 2004 - Luna\01 - Claudia Acuсa - Esta Tarde Vi Llover.wav
Pre-gap length 0:00:02.00
Peak level 99.8 %
Track quality 100.0 %
Test CRC 0C2A83BD
Copy CRC 0C2A83BD
Copy OK
Track 2
Filename H:\FLAC\Claudia Acuсa\Claudia Acuсa - 2004 - Luna\02 - Claudia Acuсa - Yesterday You And I.wav
Peak level 99.8 %
Track quality 100.0 %
Test CRC 7BD264AF
Copy CRC 7BD264AF
Copy OK
Track 3
Filename H:\FLAC\Claudia Acuсa\Claudia Acuсa - 2004 - Luna\03 - Claudia Acuсa - Tъ, Mi Delirio.wav
Pre-gap length 0:00:03.00
Peak level 99.8 %
Track quality 100.0 %
Test CRC 69BDE7A7
Copy CRC 69BDE7A7
Copy OK
Track 4
Filename H:\FLAC\Claudia Acuсa\Claudia Acuсa - 2004 - Luna\04 - Claudia Acuсa - Arrнmate Mi Amor.wav
Pre-gap length 0:00:02.00
Peak level 99.8 %
Track quality 100.0 %
Test CRC 939A99AB
Copy CRC 939A99AB
Copy OK
Track 5
Filename H:\FLAC\Claudia Acuсa\Claudia Acuсa - 2004 - Luna\05 - Claudia Acuсa - Historias.wav
Peak level 99.8 %
Track quality 100.0 %
Test CRC 1D3C0D46
Copy CRC 1D3C0D46
Copy OK
Track 6
Filename H:\FLAC\Claudia Acuсa\Claudia Acuсa - 2004 - Luna\06 - Claudia Acuсa - Chorado.wav
Peak level 99.8 %
Track quality 100.0 %
Test CRC 0940A5B4
Copy CRC 0940A5B4
Copy OK
Track 7
Filename H:\FLAC\Claudia Acuсa\Claudia Acuсa - 2004 - Luna\07 - Claudia Acuсa - A Meditation On Two Chords.wav
Pre-gap length 0:00:03.00
Peak level 99.8 %
Track quality 99.9 %
Test CRC CBDDFFF7
Copy CRC CBDDFFF7
Copy OK
Track 8
Filename H:\FLAC\Claudia Acuсa\Claudia Acuсa - 2004 - Luna\08 - Claudia Acuсa - Ocйano.wav
Peak level 99.8 %
Track quality 100.0 %
Test CRC 25F6E8FA
Copy CRC 25F6E8FA
Copy OK
Track 9
Filename H:\FLAC\Claudia Acuсa\Claudia Acuсa - 2004 - Luna\09 - Claudia Acuсa - Yo No Llevo La Razуn.wav
Pre-gap length 0:00:04.00
Peak level 99.8 %
Track quality 100.0 %
Test CRC 3B9880D6
Copy CRC 3B9880D6
Copy OK
Track 10
Filename H:\FLAC\Claudia Acuсa\Claudia Acuсa - 2004 - Luna\10 - Claudia Acuсa - Lilas.wav
Pre-gap length 0:00:02.00
Peak level 99.8 %
Track quality 99.9 %
Test CRC 0787D646
Copy CRC 0787D646
Copy OK
Track 11
Filename H:\FLAC\Claudia Acuсa\Claudia Acuсa - 2004 - Luna\11 - Claudia Acuсa - Carita De Luna.wav
Pre-gap length 0:00:02.00
Peak level 98.9 %
Track quality 100.0 %
Test CRC F4C50DA5
Copy CRC F4C50DA5
Copy OK
No errors occured
End of status report
 
CUE
REM GENRE Jazz
REM DATE 2004
REM DISCID 9E0DD50C
REM COMMENT "ExactAudioCopy v0.95b3"
PERFORMER "Claudia Acuna"
TITLE "Luna"
FILE "01 - Esta Tarde Vi Llover.wav" WAVE
TRACK 01 AUDIO
TITLE "Esta Tarde Vi Llover"
PERFORMER "Claudia Acuсa"
INDEX 01 00:00:00
FILE "02 - Yesterday You And I.wav" WAVE
TRACK 02 AUDIO
TITLE "Yesterday You And I"
PERFORMER "Claudia Acuсa"
INDEX 01 00:00:00
TRACK 03 AUDIO
TITLE "Tu, Mi Delirio"
PERFORMER "Claudia Acuсa"
INDEX 00 03:16:53
FILE "03 - Tu, Mi Delirio.wav" WAVE
INDEX 01 00:00:00
TRACK 04 AUDIO
TITLE "Arrimate Mi Amor"
PERFORMER "Claudia Acuсa"
INDEX 00 05:08:22
FILE "04 - Arrimate Mi Amor.wav" WAVE
INDEX 01 00:00:00
FILE "05 - Historias.wav" WAVE
TRACK 05 AUDIO
TITLE "Historias"
PERFORMER "Claudia Acuсa"
INDEX 01 00:00:00
FILE "06 - Chorado.wav" WAVE
TRACK 06 AUDIO
TITLE "Chorado"
PERFORMER "Claudia Acuсa"
INDEX 01 00:00:00
TRACK 07 AUDIO
TITLE "A Meditation On Two Chords"
PERFORMER "Claudia Acuсa"
INDEX 00 04:13:35
FILE "07 - A Meditation On Two Chords.wav" WAVE
INDEX 01 00:00:00
FILE "08 - Oceano.wav" WAVE
TRACK 08 AUDIO
TITLE "Oceano"
PERFORMER "Claudia Acuсa"
INDEX 01 00:00:00
TRACK 09 AUDIO
TITLE "Yo No Llevo La Razon"
PERFORMER "Claudia Acuсa"
INDEX 00 06:05:50
FILE "09 - Yo No Llevo La Razon.wav" WAVE
INDEX 01 00:00:00
TRACK 10 AUDIO
TITLE "Lilas"
PERFORMER "Claudia Acuсa"
INDEX 00 04:40:30
FILE "10 - Lilas.wav" WAVE
INDEX 01 00:00:00
TRACK 11 AUDIO
TITLE "Carita De Luna"
PERFORMER "Claudia Acuсa"
INDEX 00 03:50:57
FILE "11 - Carita De Luna.wav" WAVE
INDEX 01 00:00:00
TRACK 12 MODEx/2xxx
TITLE "Bonus Video Track"
PERFORMER "Claudia Acuсa"
INDEX 00 03:35:08
По всем вопросам пишите личное сообщение пользователю M0p94ok.
08:53
190
Нет комментариев. Ваш будет первым!