Поиск

(Ethnic Jazz) Buddy Rich And Alla Rakha — Rich A La Rakha (1968) — 2001 (Remastered), FLAC (tracks), lossless

Треклист:
Buddy Rich And Alla Rakha — Rich A La Rakha (1968)
Жанр: Ethnic Jazz
Год выпуска диска: 2001
Производитель диска: BGO Records
Аудио кодек: FLAC
Тип рипа: tracks
Битрейт аудио: lossless
Продолжительность: 36:33
Источник: вата
Сканы: добавлены найденные в сети
Треклист:
001. Khanda Kafi (5:18)
02. Duet In Dadra (4:19)
03. Rangeela (7:41)
04. Nagma E Raksh (4:45)
05. Tal Sawari (14:30)
 
Лог создания рипа
Exact Audio Copy V0.99 prebeta 4 from 23. January 2008
EAC extraction logfile from 14. May 2009, 21:13
Rich_Buddy and Alla Rakha / Rich a la Rakha (Remastered)
Used drive : PIONEER DVD-RW DVR-111D Adapter: 1 ID: 1
Read mode : Secure
Utilize accurate stream : Yes
Defeat audio cache : Yes
Make use of C2 pointers : No
Read offset correction : 48
Overread into Lead-In and Lead-Out : No
Fill up missing offset samples with silence : Yes
Delete leading and trailing silent blocks : No
Null samples used in CRC calculations : Yes
Used interface : Native Win32 interface for Win NT & 2000
Gap handling : Appended to previous track
Used output format : User Defined Encoder
Selected bitrate : 320 kBit/s
Quality : High
Add ID3 tag : No
Command line compressor : C:\Program Files\Exact Audio Copy\Flac\flac.exe
Additional command line options : -V -8 -T "artist=%a" -T "title=%t" -T "album=%g" -T "date=%y" -T "tracknumber=%n" -T "genre=%m" %s
TOC of the extracted CD
Track | Start | Length | Start sector | End sector
---------------------------------------------------------
1 | 0:00.00 | 5:18.04 | 0 | 23853
2 | 5:18.04 | 4:19.05 | 23854 | 43283
3 | 9:37.09 | 7:40.52 | 43284 | 77835
4 | 17:17.61 | 4:44.59 | 77836 | 99194
5 | 22:02.45 | 14:30.28 | 99195 | 164472
Track 1
Filename E:\EAC Rips\Rich_Buddy and Alla Rakha - 1968 - Rich a la Rakha (Remastered) [FLAC]\01 - Khanda Kafi.wav
Pre-gap length 0:00:02.00
Peak level 84.4 %
Track quality 100.0 %
Test CRC D171467F
Copy CRC D171467F
Track not present in AccurateRip database
Copy OK
Track 2
Filename E:\EAC Rips\Rich_Buddy and Alla Rakha - 1968 - Rich a la Rakha (Remastered) [FLAC]\02 - Duet In Dadra.wav
Pre-gap length 0:00:02.00
Peak level 81.0 %
Track quality 100.0 %
Test CRC D75EDCF8
Copy CRC D75EDCF8
Track not present in AccurateRip database
Copy OK
Track 3
Filename E:\EAC Rips\Rich_Buddy and Alla Rakha - 1968 - Rich a la Rakha (Remastered) [FLAC]\03 - Rangeela.wav
Pre-gap length 0:00:01.00
Peak level 80.0 %
Track quality 100.0 %
Test CRC AE497D30
Copy CRC AE497D30
Track not present in AccurateRip database
Copy OK
Track 4
Filename E:\EAC Rips\Rich_Buddy and Alla Rakha - 1968 - Rich a la Rakha (Remastered) [FLAC]\04 - Nagma E Raksh.wav
Pre-gap length 0:00:00.49
Peak level 81.9 %
Track quality 100.0 %
Test CRC 8174641C
Copy CRC 8174641C
Track not present in AccurateRip database
Copy OK
Track 5
Filename E:\EAC Rips\Rich_Buddy and Alla Rakha - 1968 - Rich a la Rakha (Remastered) [FLAC]\05 - Tal Sawari.wav
Pre-gap length 0:00:01.00
Peak level 100.0 %
Track quality 99.9 %
Test CRC 89D43E6A
Copy CRC 89D43E6A
Track not present in AccurateRip database
Copy OK
None of the tracks are present in the AccurateRip database
No errors occurred
End of status report
 
Содержание индексной карты (.CUE)
REM GENRE Indo-Jazz
REM DATE 1968
REM DISCID 33089005
REM COMMENT "ExactAudioCopy v0.99pb4"
FILE "01 - Khanda Kafi.wav" WAVE
TRACK 01 AUDIO
INDEX 01 00:00:00
TRACK 02 AUDIO
INDEX 00 05:16:04
FILE "02 - Duet In Dadra.wav" WAVE
INDEX 01 00:00:00
TRACK 03 AUDIO
INDEX 00 04:18:05
FILE "03 - Rangeela.wav" WAVE
INDEX 01 00:00:00
TRACK 04 AUDIO
INDEX 00 07:40:15
FILE "04 - Nagma E Raksh.wav" WAVE
INDEX 01 00:00:00
TRACK 05 AUDIO
INDEX 00 04:43:59
FILE "05 - Tal Sawari.wav" WAVE
INDEX 01 00:00:00
 
Accurip
[CUETools log; Date: 04.04.2011 1:14:47; Version: 2.0.9]
[CTDB TOCID: qcxlexU4xIzw8shxtH_lHJ3TNUE-] disk not present in database.
[AccurateRip ID: 00063c42-001e1606-33089005] found.
Track [ CRC ] Status
01 [ecefb0b6] (0/1) No match
02 [bc831c2f] (0/1) No match
03 [e05d453f] (0/1) No match
04 [76f4cf22] (0/1) No match
05 [e010ed8f] (0/1) No match
Offsetted by -78:
01 [5bf7d33a] (1/1) Accurately ripped
02 [eaff705b] (1/1) Accurately ripped
03 [95be05a5] (1/1) Accurately ripped
04 [3d7d8ca6] (1/1) Accurately ripped
05 [4d9d8843] (1/1) Accurately ripped
Track Peak [ CRC32 ] [W/O NULL] [ LOG ]
-- 100,0 [02D1FAC5] [769A8D6A]
01 84,4 [D171467F] [0D60C678] CRC32
02 81,0 [D75EDCF8] [0BC03EBF] CRC32
03 80,0 [AE497D30] [EB60D1CD] CRC32
04 81,9 [8174641C] [266BAA2F] CRC32
05 100,0 [89D43E6A] [542B8E4B] CRC32
По всем вопросам пишите личное сообщение пользователю M0p94ok.
08:53
271
Нет комментариев. Ваш будет первым!