Поиск

(bossa nova, jazz, chanson, pop) Clementine - Made In France - 2005, flac (tracks+.cue), lossless

Треклист:
Clementine - Made In France
Жанр: bossa nova, jazz, chanson, pop
Год выпуска диска: 2005
Производитель диска: Thailand (EMI)
Аудио кодек: flac
Тип рипа: tracks+.cue
Битрейт аудио: lossless
Продолжительность: 40:03
Трэклист:
1. Pina Colada 2:40
2. Sans Toi, Ma Mie 2:49
3. Le Tourbillon 4:24
4. Cet Amour D'ete 3:51
5. Chopin Et Toi 3:52
6. Paris Vi 3:14
7. Angele 2:46
8. Itsi Bitsi Petit Bikini 2:25
9. D'un Cote Comme De L'autre 4:20
10. Ballade De Johnny-Jane 3:48
11. Allons Petite 3:05
12. L'amour Est Bleu 2:50
Доп. информация: "...К великому сожалению, не могу вам рассказать ничего о этой девушке, разве, что
мне известен тот факт, француженка Клементин (Clémentine) живет в Японии и имеет там, очень большой успех.
Сам Стефан Помпуньяк (Hotel Costes) считает ее одной из лучших лаундж голосов.
В 2002 году, вышел эксклюзивный альбом, кавер версий французких джазовых хитов в исполнении Клементин,
в обработках известных французких DJ."
(процитировано с http://altica.livejournal.com/5750.html)
 
скрытый текст
Exact Audio Copy V0.99 prebeta 5 from 4. May 2009
Отчёт EAC об извлечении, выполненном 16. ноября 2009, 23:27
Clementine / Made In France
Дисковод: Optiarc DVD RW AD-7240S Adapter: 2 ID: 0
Режим чтения : Достоверность
Использование точного потока : Да
Отключение кэша аудио : Да
Использование указателей C2 : Нет
Коррекция смещения при чтении : 48
Способность читать области Lead-in и Lead-out : Нет
Заполнение пропущенных сэмплов тишиной : Да
Удаление блоков с тишиной в начале и конце : Нет
При вычислениях CRC использовались нулевые сэмплы : Да
Интерфейс : Установленный внешний ASPI-интерфейс
Обработка зазоров : Добавлено к предыдущему треку
Выходной формат : Пользовательский кодировщик
Выбранный битрейт : 128 kBit/s
Качество : Высокий
Добавление ID3-тэга : Нет
Утилита сжатия : C:\Program Files\Exact Audio Copy\Flac\flac.exe
Дополнительные параметры : -8 -V -T "ARTIST=%a" -T "TITLE=%t" -T "ALBUM=%g" -T "DATE=%y" -T "TRACKNUMBER=%n" -T "GENRE=%m" -T "COMMENT=EAC FLAC -8" %s
TOC извлечённого CD
Трек | Старт | Длительность | Начальный сектор | Конечный сектор
---------------------------------------------------------------------
1 | 0:00.00 | 2:39.72 | 0 | 11996
2 | 2:39.72 | 2:49.21 | 11997 | 24692
3 | 5:29.18 | 4:24.12 | 24693 | 44504
4 | 9:53.30 | 3:50.35 | 44505 | 61789
5 | 13:43.65 | 3:51.70 | 61790 | 79184
6 | 17:35.60 | 3:13.68 | 79185 | 93727
7 | 20:49.53 | 2:46.07 | 93728 | 106184
8 | 23:35.60 | 2:24.30 | 106185 | 117014
9 | 26:00.15 | 4:20.05 | 117015 | 136519
10 | 30:20.20 | 3:47.65 | 136520 | 153609
11 | 34:08.10 | 3:05.07 | 153610 | 167491
12 | 37:13.17 | 2:49.66 | 167492 | 180232
Трек 1
Имя файла J:\Евгеша\My Music\Музыка\Конверт\Clementine_Made In France\01. Clementine - Pina Colada.wav
Длина предзазора 0:00:02.00
Пиковый уровень 100.0 %
Качество трека 100.0 %
CRC теста 9CEBC634
CRC копии 9CEBC634
Трек не обнаружен в базе AccurateRip
Копирование... OK
Трек 2
Имя файла J:\Евгеша\My Music\Музыка\Конверт\Clementine_Made In France\02. Clementine - Sans Toi, Ma Mie.wav
Пиковый уровень 100.0 %
Качество трека 99.8 %
CRC теста 86342C6E
CRC копии 86342C6E
Трек не обнаружен в базе AccurateRip
Копирование... OK
Трек 3
Имя файла J:\Евгеша\My Music\Музыка\Конверт\Clementine_Made In France\03. Clementine - Le Tourbillon.wav
Пиковый уровень 100.0 %
Качество трека 99.9 %
CRC теста 4125906E
CRC копии 4125906E
Трек не обнаружен в базе AccurateRip
Копирование... OK
Трек 4
Имя файла J:\Евгеша\My Music\Музыка\Конверт\Clementine_Made In France\04. Clementine - Cet Amour D'Ete.wav
Пиковый уровень 100.0 %
Качество трека 99.9 %
CRC теста E2671EC2
CRC копии E2671EC2
Трек не обнаружен в базе AccurateRip
Копирование... OK
Трек 5
Имя файла J:\Евгеша\My Music\Музыка\Конверт\Clementine_Made In France\05. Clementine - Chopin Et Toi.wav
Пиковый уровень 100.0 %
Качество трека 99.9 %
CRC теста 25765874
CRC копии 25765874
Трек не обнаружен в базе AccurateRip
Копирование... OK
Трек 6
Имя файла J:\Евгеша\My Music\Музыка\Конверт\Clementine_Made In France\06. Clementine - Paris VI.wav
Пиковый уровень 100.0 %
Качество трека 99.9 %
CRC теста 04E6B84F
CRC копии 04E6B84F
Трек не обнаружен в базе AccurateRip
Копирование... OK
Трек 7
Имя файла J:\Евгеша\My Music\Музыка\Конверт\Clementine_Made In France\07. Clementine - Angele.wav
Пиковый уровень 100.0 %
Качество трека 100.0 %
CRC теста 7D98DCEB
CRC копии 7D98DCEB
Трек не обнаружен в базе AccurateRip
Копирование... OK
Трек 8
Имя файла J:\Евгеша\My Music\Музыка\Конверт\Clementine_Made In France\08. Clementine - Itsi Bitsi Petit Bikini.wav
Пиковый уровень 100.0 %
Качество трека 99.8 %
CRC теста 934D7289
CRC копии 934D7289
Трек не обнаружен в базе AccurateRip
Копирование... OK
Трек 9
Имя файла J:\Евгеша\My Music\Музыка\Конверт\Clementine_Made In France\09. Clementine - D'un Cote Comme De L'Autre.wav
Пиковый уровень 100.0 %
Качество трека 99.8 %
CRC теста 5A41E6D9
CRC копии 5A41E6D9
Трек не обнаружен в базе AccurateRip
Копирование... OK
Трек 10
Имя файла J:\Евгеша\My Music\Музыка\Конверт\Clementine_Made In France\10. Clementine - Ballade De Johnny-Jane.wav
Пиковый уровень 100.0 %
Качество трека 100.0 %
CRC теста CF62A7C8
CRC копии CF62A7C8
Трек не обнаружен в базе AccurateRip
Копирование... OK
Трек 11
Имя файла J:\Евгеша\My Music\Музыка\Конверт\Clementine_Made In France\11. Clementine - Allons Petite.wav
Пиковый уровень 100.0 %
Качество трека 100.0 %
CRC теста 0D6BF126
CRC копии 0D6BF126
Трек не обнаружен в базе AccurateRip
Копирование... OK
Трек 12
Имя файла J:\Евгеша\My Music\Музыка\Конверт\Clementine_Made In France\12. Clementine - L'Amour Est Bleu.wav
Длина предзазора 0:00:03.24
Пиковый уровень 100.0 %
Качество трека 100.0 %
CRC теста F8D437FD
CRC копии F8D437FD
Трек не обнаружен в базе AccurateRip
Копирование... OK
Ни одного трека нет в базе AccurateRip
Ошибок не произошло
Конец отчёта
Download available for power users only.
08:52
364
Нет комментариев. Ваш будет первым!