Поиск

(bossa nova, jazz, chanson, pop) Clementine - Lumiere' - 2006, flac (tracks+.cue), lossless

Треклист:
Clementine - Lumiere'
Жанр: bossa nova, jazz, chanson, pop
Год выпуска диска: 2006
Производитель диска: Tawan (EMI)
Аудио кодек: flac
Тип рипа: tracks+.cue
Битрейт аудио: lossless
Продолжительность: 40:09
Трэклист:
1. Kokomo 2:53
2. Moon River 2:58
3. Time After Time 4:11
4. Melody Fair 3:04
5. Laura 2:35
6. Swingueira 4:00
7. Song Of The Vagabonds 2:50
8. Un Amor Que Ya Paso 3:26
9. Little Green Bag 3:25
10. Two Of Us 4:44
11. Hymne A L'amour 2:56
12. Le Marin Des Vents 3:05
Доп. информация: Буклет прилагается в папке "covers"
 
скрытый текст
Exact Audio Copy V0.99 prebeta 5 from 4. May 2009
Отчёт EAC об извлечении, выполненном 16. ноября 2009, 22:36
Clementine' / Lumiere
Дисковод: Optiarc DVD RW AD-7240S Adapter: 2 ID: 0
Режим чтения : Достоверность
Использование точного потока : Да
Отключение кэша аудио : Да
Использование указателей C2 : Нет
Коррекция смещения при чтении : 48
Способность читать области Lead-in и Lead-out : Нет
Заполнение пропущенных сэмплов тишиной : Да
Удаление блоков с тишиной в начале и конце : Нет
При вычислениях CRC использовались нулевые сэмплы : Да
Интерфейс : Установленный внешний ASPI-интерфейс
Обработка зазоров : Добавлено к предыдущему треку
Выходной формат : Пользовательский кодировщик
Выбранный битрейт : 128 kBit/s
Качество : Высокий
Добавление ID3-тэга : Нет
Утилита сжатия : C:\Program Files\Exact Audio Copy\Flac\flac.exe
Дополнительные параметры : -8 -V -T "ARTIST=%a" -T "TITLE=%t" -T "ALBUM=%g" -T "DATE=%y" -T "TRACKNUMBER=%n" -T "GENRE=%m" -T "COMMENT=EAC FLAC -8" %s
TOC извлечённого CD
Трек | Старт | Длительность | Начальный сектор | Конечный сектор
---------------------------------------------------------------------
1 | 0:00.00 | 2:53.14 | 0 | 12988
2 | 2:53.14 | 2:57.67 | 12989 | 26330
3 | 5:51.06 | 4:10.64 | 26331 | 45144
4 | 10:01.70 | 3:03.74 | 45145 | 58943
5 | 13:05.69 | 2:35.42 | 58944 | 70610
6 | 15:41.36 | 4:00.10 | 70611 | 88620
7 | 19:41.46 | 2:50.61 | 88621 | 101431
8 | 22:32.32 | 3:25.57 | 101432 | 116863
9 | 25:58.14 | 3:25.39 | 116864 | 132277
10 | 29:23.53 | 4:44.41 | 132278 | 153618
11 | 34:08.19 | 2:56.32 | 153619 | 166850
12 | 37:04.51 | 3:04.74 | 166851 | 180724
Трек 1
Имя файла J:\Евгеша\My Music\Музыка\Конверт\Clementine_Lumiere'\01. Clementine' - Kokomo.wav
Длина предзазора 0:00:02.00
Пиковый уровень 98.8 %
Качество трека 100.0 %
CRC теста A550A625
CRC копии A550A625
Точность не определена (достоверность 1) [EEC3CDB7], AccurateRip вернул [793FB203]
Копирование... OK
Трек 2
Имя файла J:\Евгеша\My Music\Музыка\Конверт\Clementine_Lumiere'\02. Clementine' - Moon River.wav
Длина предзазора 0:00:01.60
Пиковый уровень 89.6 %
Качество трека 100.0 %
CRC теста A1EB9712
CRC копии A1EB9712
Точность не определена (достоверность 1) [D1B61C7E], AccurateRip вернул [7D388434]
Копирование... OK
Трек 3
Имя файла J:\Евгеша\My Music\Музыка\Конверт\Clementine_Lumiere'\03. Clementine' - Time After Time.wav
Длина предзазора 0:00:01.60
Пиковый уровень 99.7 %
Качество трека 100.0 %
CRC теста BEFC5ED4
CRC копии BEFC5ED4
Точность не определена (достоверность 1) [9E187DBC], AccurateRip вернул [3727F072]
Копирование... OK
Трек 4
Имя файла J:\Евгеша\My Music\Музыка\Конверт\Clementine_Lumiere'\04. Clementine' - Melody Fair.wav
Длина предзазора 0:00:02.60
Пиковый уровень 100.0 %
Качество трека 100.0 %
CRC теста E9B992F2
CRC копии E9B992F2
Точность не определена (достоверность 1) [0152FA19], AccurateRip вернул [3660B64E]
Копирование... OK
Трек 5
Имя файла J:\Евгеша\My Music\Музыка\Конверт\Clementine_Lumiere'\05. Clementine' - Laura.wav
Пиковый уровень 100.0 %
Качество трека 100.0 %
CRC теста 7E7E45E3
CRC копии 7E7E45E3
Точность не определена (достоверность 1) [59C399AD], AccurateRip вернул [1D9B989B]
Копирование... OK
Трек 6
Имя файла J:\Евгеша\My Music\Музыка\Конверт\Clementine_Lumiere'\06. Clementine' - Swingueira.wav
Длина предзазора 0:00:00.60
Пиковый уровень 100.0 %
Качество трека 100.0 %
CRC теста B217879B
CRC копии B217879B
Точность не определена (достоверность 1) [4AB3A90A], AccurateRip вернул [3B5D403E]
Копирование... OK
Трек 7
Имя файла J:\Евгеша\My Music\Музыка\Конверт\Clementine_Lumiere'\07. Clementine' - Song of The Vagabonds.wav
Пиковый уровень 100.0 %
Качество трека 100.0 %
CRC теста 7B250997
CRC копии 7B250997
Точность не определена (достоверность 1) [CC7F4E20], AccurateRip вернул [D5AFFA84]
Копирование... OK
Трек 8
Имя файла J:\Евгеша\My Music\Музыка\Конверт\Clementine_Lumiere'\08. Clementine' - Un Amor Que Ya Paso.wav
Пиковый уровень 100.0 %
Качество трека 100.0 %
CRC теста A41AD800
CRC копии A41AD800
Точность не определена (достоверность 1) [EB159E94], AccurateRip вернул [8003E77C]
Копирование... OK
Трек 9
Имя файла J:\Евгеша\My Music\Музыка\Конверт\Clementine_Lumiere'\09. Clementine' - Little Green Bag.wav
Длина предзазора 0:00:00.60
Пиковый уровень 100.0 %
Качество трека 99.9 %
CRC теста B2812C7D
CRC копии B2812C7D
Точность не определена (достоверность 1) [A4B0E2E8], AccurateRip вернул [BB677310]
Копирование... OK
Трек 10
Имя файла J:\Евгеша\My Music\Музыка\Конверт\Clementine_Lumiere'\10. Clementine' - Two of Us.wav
Длина предзазора 0:00:01.60
Пиковый уровень 87.6 %
Качество трека 100.0 %
CRC теста 5949CA0B
CRC копии 5949CA0B
Точность не определена (достоверность 1) [AABB5715], AccurateRip вернул [B59C5435]
Копирование... OK
Трек 11
Имя файла J:\Евгеша\My Music\Музыка\Конверт\Clementine_Lumiere'\11. Clementine' - Hymne A L'amour.wav
Длина предзазора 0:00:03.60
Пиковый уровень 100.0 %
Качество трека 100.0 %
CRC теста 8D43E8D2
CRC копии 8D43E8D2
Точность не определена (достоверность 1) [64978CEC], AccurateRip вернул [E545A11F]
Копирование... OK
Трек 12
Имя файла J:\Евгеша\My Music\Музыка\Конверт\Clementine_Lumiere'\12. Clementine' - Le Marin Des Vents.wav
Длина предзазора 0:00:04.60
Пиковый уровень 100.0 %
Качество трека 99.9 %
CRC теста A3D67450
CRC копии A3D67450
Точность не определена (достоверность 1) [8A3C6A14], AccurateRip вернул [A2B44784]
Копирование... OK
Ни один трек не прошел проверку на точность
Ошибок не произошло
Конец отчёта
По всем вопросам пишите личное сообщение пользователю M0p94ok.
08:51
222
Нет комментариев. Ваш будет первым!