Поиск

(Post Bop) Herbie Mann (feat. Eddie Gomez, Randy Brecker, Lewis Nash, Bruce Dunlap) - Peace Pieces The Music of Bill Evans - 1995, FLAC (tracks+.cue) lossless

(Post Bop) Herbie Mann (feat. Eddie Gomez, Randy Brecker, Lewis Nash, Bruce Dunlap) - Peace Pieces The Music of Bill Evans - 1995, FLAC (tracks+.cue) lossless
Треклист:
Herbie Mann / Peace Pieces The Music of Bill Evans
Жанр: Post Bop
Страна-производитель диска: USA
Год издания диска: 1995
Издатель (лейбл): Kokopelli Records
Номер по каталогу: 1306
Страна: USA
Аудио кодек: FLAC (*.flac)
Тип рипа: tracks+.cue
Битрейт аудио: lossless
Продолжительность: 51:32
Источник (релизер): Мой рип
Наличие сканов в содержимом раздачи: частично да (буклет утрачен)
Треклист:
1 Peri's Scope 5:05
2 Funkallero 4:45
3 Interplay 4:45
4 Turn Out the Stars 7:02
5 We Will Meet Again 5:20
6 Blue in Green (Davis, Evans) 7:10
7 Waltz for Debby 4:17
8 Very Early 5:28
9 Peace Piece 7:40
 
Лог создания рипа
Exact Audio Copy V0.99 prebeta 5 from 4. May 2009
EAC extraction logfile from 9. February 2011, 10:32
Herbie Mann / Peace Pieces: the Music of Bill Evans
Used drive : Optiarc DVD RW AD-7200S Adapter: 2 ID: 1
Read mode : Secure
Utilize accurate stream : Yes
Defeat audio cache : Yes
Make use of C2 pointers : No
Read offset correction : 48
Overread into Lead-In and Lead-Out : No
Fill up missing offset samples with silence : Yes
Delete leading and trailing silent blocks : No
Null samples used in CRC calculations : Yes
Used interface : Native Win32 interface for Win NT & 2000
Gap handling : Appended to previous track
Used output format : User Defined Encoder
Selected bitrate : 128 kBit/s
Quality : High
Add ID3 tag : No
Command line compressor : C:\Program Files\Exact Audio Copy\FLAC\FLAC.EXE
Additional command line options : -8 -V -T "ARTIST=%a" -T "TITLE=%t" -T "ALBUM=%g" -T "DATE=%y" -T "TRACKNUMBER=%n" -T "GENRE=%m" -T "COMMENT=EAC FLAC -8" %s
TOC of the extracted CD
Track | Start | Length | Start sector | End sector
---------------------------------------------------------
1 | 0:00.00 | 5:11.07 | 0 | 23331
2 | 5:11.07 | 4:29.00 | 23332 | 43506
3 | 9:40.07 | 4:52.38 | 43507 | 65444
4 | 14:32.45 | 7:07.05 | 65445 | 97474
5 | 21:39.50 | 5:23.17 | 97475 | 121716
6 | 27:02.67 | 7:23.42 | 121717 | 154983
7 | 34:26.34 | 4:21.41 | 154984 | 174599
8 | 38:48.00 | 5:36.10 | 174600 | 199809
9 | 44:24.10 | 6:42.72 | 199810 | 230031
Track 1
Filename E:\Herbie Mann - Peace Pieces the Music of Bill Evans (1995)\01. Herbie Mann – Peri's Scope.wav
Pre-gap length 0:00:02.00
Peak level 93.9 %
Track quality 100.0 %
Test CRC 48081601
Copy CRC 48081601
Accurately ripped (confidence 4) [74898FF0]
Copy OK
Track 2
Filename E:\Herbie Mann - Peace Pieces the Music of Bill Evans (1995)\02. Herbie Mann – Funkallero.wav
Pre-gap length 0:00:02.65
Peak level 100.0 %
Track quality 100.0 %
Test CRC F18E1903
Copy CRC F18E1903
Accurately ripped (confidence 4) [E89FF58D]
Copy OK
Track 3
Filename E:\Herbie Mann - Peace Pieces the Music of Bill Evans (1995)\03. Herbie Mann – Interplay.wav
Pre-gap length 0:00:02.30
Peak level 100.0 %
Track quality 100.0 %
Test CRC 40100EAA
Copy CRC 40100EAA
Accurately ripped (confidence 4) [DE713CB5]
Copy OK
Track 4
Filename E:\Herbie Mann - Peace Pieces the Music of Bill Evans (1995)\04. Herbie Mann – Turn Out The Stars.wav
Pre-gap length 0:00:02.60
Peak level 84.9 %
Track quality 100.0 %
Test CRC C19267E8
Copy CRC C19267E8
Accurately ripped (confidence 4) [17DB5B3A]
Copy OK
Track 5
Filename E:\Herbie Mann - Peace Pieces the Music of Bill Evans (1995)\05. Herbie Mann – We Will Meet Again.wav
Pre-gap length 0:00:04.63
Peak level 93.2 %
Track quality 100.0 %
Test CRC 21D17848
Copy CRC 21D17848
Accurately ripped (confidence 4) [948366E3]
Copy OK
Track 6
Filename E:\Herbie Mann - Peace Pieces the Music of Bill Evans (1995)\06. Herbie Mann – Blue in Green.wav
Pre-gap length 0:00:03.72
Peak level 88.7 %
Track quality 100.0 %
Test CRC A3CBC12B
Copy CRC A3CBC12B
Accurately ripped (confidence 4) [ABC0A3EC]
Copy OK
Track 7
Filename E:\Herbie Mann - Peace Pieces the Music of Bill Evans (1995)\07. Herbie Mann – Waltz For Debbie.wav
Pre-gap length 0:00:02.02
Peak level 83.2 %
Track quality 100.0 %
Test CRC 6FE0CEAC
Copy CRC 6FE0CEAC
Accurately ripped (confidence 4) [4DE95691]
Copy OK
Track 8
Filename E:\Herbie Mann - Peace Pieces the Music of Bill Evans (1995)\08. Herbie Mann – Very Early.wav
Pre-gap length 0:00:03.00
Peak level 99.5 %
Track quality 100.0 %
Test CRC B8BA9329
Copy CRC B8BA9329
Accurately ripped (confidence 4) [41CC5467]
Copy OK
Track 9
Filename E:\Herbie Mann - Peace Pieces the Music of Bill Evans (1995)\09. Herbie Mann – Peace Piece.wav
Pre-gap length 0:00:06.38
Peak level 97.0 %
Track quality 100.0 %
Test CRC B8FB240D
Copy CRC B8FB240D
Accurately ripped (confidence 3) [9F90EF68]
Copy OK
All tracks accurately ripped
No errors occurred
End of status report
 
Содержание индексной карты (.CUE)
REM DATE 1995
REM DISCID 690BFB09
REM COMMENT "ExactAudioCopy v0.99pb5"
PERFORMER "Herbie Mann"
TITLE "Peace Pieces: the Music of Bill Evans"
FILE "01. Herbie Mann – Peri's Scope.wav" WAVE
TRACK 01 AUDIO
TITLE "Peri's Scope"
PERFORMER "Herbie Mann"
INDEX 01 00:00:00
TRACK 02 AUDIO
TITLE "Funkallero"
PERFORMER "Herbie Mann"
INDEX 00 05:08:17
FILE "02. Herbie Mann – Funkallero.wav" WAVE
INDEX 01 00:00:00
TRACK 03 AUDIO
TITLE "Interplay"
PERFORMER "Herbie Mann"
INDEX 00 04:26:45
FILE "03. Herbie Mann – Interplay.wav" WAVE
INDEX 01 00:00:00
TRACK 04 AUDIO
TITLE "Turn Out The Stars"
PERFORMER "Herbie Mann"
INDEX 00 04:49:53
FILE "04. Herbie Mann – Turn Out The Stars.wav" WAVE
INDEX 01 00:00:00
TRACK 05 AUDIO
TITLE "We Will Meet Again"
PERFORMER "Herbie Mann"
INDEX 00 07:02:17
FILE "05. Herbie Mann – We Will Meet Again.wav" WAVE
INDEX 01 00:00:00
TRACK 06 AUDIO
TITLE "Blue in Green"
PERFORMER "Herbie Mann"
INDEX 00 05:19:20
FILE "06. Herbie Mann – Blue in Green.wav" WAVE
INDEX 01 00:00:00
TRACK 07 AUDIO
TITLE "Waltz For Debbie"
PERFORMER "Herbie Mann"
INDEX 00 07:21:40
FILE "07. Herbie Mann – Waltz For Debbie.wav" WAVE
INDEX 01 00:00:00
TRACK 08 AUDIO
TITLE "Very Early"
PERFORMER "Herbie Mann"
INDEX 00 04:18:41
FILE "08. Herbie Mann – Very Early.wav" WAVE
INDEX 01 00:00:00
TRACK 09 AUDIO
TITLE "Peace Piece"
PERFORMER "Herbie Mann"
INDEX 00 05:29:47
FILE "09. Herbie Mann – Peace Piece.wav" WAVE
INDEX 01 00:00:00
 
Об альбоме (сборнике)
Herbie Mann's Peace Pieces may surprise some listeners who think that the flutist has long forgotten his jazz roots. Mann has always considered the late pianist Bill Evans to be one of his favorite musicians and he actually recorded an album with him (1961's Nirvana). For his Kokopelli release, Mann performs eight songs composed by Evans and one ("Blue in Green") that the pianist claimed Miles Davis permanently "borrowed" from him. Mann wisely did not utilize a piano (thereby avoiding any comparisons) and his thoughtful set has more variety than one might expect. Randy Brecker has a couple of guest spots on flugelhorn, Mann overdubbed additional flutes on a few numbers (forming a section behind his solo playing) and he used an excellent and quiet rhythm section comprised of guitarist Bruce Dunlap, bassist Eddie Gomez, drummer Louis Nash, and sometimes percussionist Sammy Figueroa. A few of the pieces are heated while others are quite introspective but all of the music is both thoughtful and swinging. Highly recommended. by Scott Yanow
 
Состав
Bass - Eddie Gomez , Paul Socolow (tracks: Tracks: 2,5)
Drums - Lewis Nash (tracks: Louis Nash) , Ricky Sebastian (tracks: Tracks: 2,5)
Flugelhorn - Randy Brecker
Flute - Herbie Mann
Guitar - Bruce Dunlap
Percussion - Sammy Figueroa
19:24
377
Нет комментариев. Ваш будет первым!