Поиск

(Bossa Nova, Brazilian Jazz) Carlos Lyra - Sarava! (1970) - 2002, FLAC (tracks+.cue) lossless

Треклист:
Carlos Lyra
Sarava! (1970)



.
Жанр: Bossa Nova, Brazilian Jazz | Страна: Brazil
Дата выпуска альбома / диска: 1970 / 2002 | Производитель диска: Sony BMG Brasil
Аудио кодек: FLAC | Тип рипа: tracks+.cue | Битрейт аудио: lossless
+ JPG art scans
Формат: Studio Album
Источник: www
Продолжительность: 35:21


TRACKLiST:
01. Vacilada (2:44)
02. Quien te Manda (3:14)
03. Para no Decir Adios (3:44)
04. Solo tu no Vienes (2:00)
05. Balanceo (2:35)
06. Tristeza (3:47)
07. El Jacal (2:57)
08. Paz Sin Amor (2:03)
09. Viene Del Amor (1:48)
10. Lugar Bonito (1:59)
11. Samba de La Bendicion (Sarava) (8:30)
.
 
EAC log
Exact Audio Copy V0.99 prebeta 4 from 23. January 2008
EAC extraction logfile from 13. May 2009, 13:31
Carlos Lyra / Sarava
Used drive : TSSTcorpCDDVDW SE-S084B Adapter: 3 ID: 0
Read mode : Secure
Utilize accurate stream : Yes
Defeat audio cache : Yes
Make use of C2 pointers : No
Read offset correction : 6
Overread into Lead-In and Lead-Out : No
Fill up missing offset samples with silence : Yes
Delete leading and trailing silent blocks : No
Null samples used in CRC calculations : Yes
Used interface : Installed external ASPI interface
Gap handling : Appended to previous track
Used output format : Internal WAV Routines
Sample format : 44.100 Hz; 16 Bit; Stereo
TOC of the extracted CD
Track | Start | Length | Start sector | End sector
---------------------------------------------------------
1 | 0:00.00 | 2:44.32 | 0 | 12331
2 | 2:44.32 | 3:14.46 | 12332 | 26927
3 | 5:59.03 | 3:44.20 | 26928 | 43747
4 | 9:43.23 | 2:00.62 | 43748 | 52809
5 | 11:44.10 | 2:35.67 | 52810 | 64501
6 | 14:20.02 | 3:47.24 | 64502 | 81550
7 | 18:07.26 | 2:57.54 | 81551 | 94879
8 | 21:05.05 | 2:03.07 | 94880 | 104111
9 | 23:08.12 | 1:48.23 | 104112 | 112234
10 | 24:56.35 | 1:59.21 | 112235 | 121180
11 | 26:55.56 | 8:30.56 | 121181 | 159486
Track 1
Filename C:\01 - VACILADA.wav
Pre-gap length 0:00:02.00
Peak level 98.6 %
Track quality 100.0 %
Test CRC 34D3B155
Copy CRC 34D3B155
Accurately ripped (confidence 1) [94043BF0]
Copy OK
Track 2
Filename C:\02 - QUIEN TE MANDA .wav
Pre-gap length 0:00:02.61
Peak level 98.4 %
Track quality 99.9 %
Test CRC 89C1049C
Copy CRC 89C1049C
Accurately ripped (confidence 1) [4B27640A]
Copy OK
Track 3
Filename C:\03 - PARA NO DECIR ADIOS.wav
Pre-gap length 0:00:02.58
Peak level 98.5 %
Track quality 100.0 %
Test CRC D598B843
Copy CRC D598B843
Accurately ripped (confidence 1) [B28FE724]
Copy OK
Track 4
Filename C:\04 - SOLO TU NO VIENES.wav
Pre-gap length 0:00:02.58
Peak level 98.4 %
Track quality 100.0 %
Test CRC F3899546
Copy CRC F3899546
Accurately ripped (confidence 1) [10B926CF]
Copy OK
Track 5
Filename C:\05 - BALANCEO.wav
Pre-gap length 0:00:02.61
Peak level 98.8 %
Track quality 100.0 %
Test CRC 69D6EB1B
Copy CRC 69D6EB1B
Accurately ripped (confidence 1) [43FEF3E6]
Copy OK
Track 6
Filename C:\06 - TRISTEZA.wav
Pre-gap length 0:00:02.61
Peak level 98.8 %
Track quality 100.0 %
Test CRC D21A3877
Copy CRC D21A3877
Accurately ripped (confidence 1) [F9FDAB97]
Copy OK
Track 7
Filename C:\07 - EL JACAL.wav
Pre-gap length 0:00:02.60
Peak level 98.2 %
Track quality 100.0 %
Test CRC 26A90C0B
Copy CRC 26A90C0B
Accurately ripped (confidence 1) [5645C74E]
Copy OK
Track 8
Filename C:\08 - PAZ SIN AMOR.wav
Pre-gap length 0:00:02.61
Peak level 98.8 %
Track quality 100.0 %
Test CRC 80D0648D
Copy CRC 80D0648D
Accurately ripped (confidence 1) [6A7062B6]
Copy OK
Track 9
Filename C:\09 - VIENE DEL AMOR.wav
Pre-gap length 0:00:02.61
Peak level 98.8 %
Track quality 100.0 %
Test CRC 6A543087
Copy CRC 6A543087
Accurately ripped (confidence 1) [6CCF6BEB]
Copy OK
Track 10
Filename C:\10 - LUGAR BONITO.wav
Pre-gap length 0:00:02.61
Peak level 98.8 %
Track quality 100.0 %
Test CRC 75F23DE3
Copy CRC 75F23DE3
Accurately ripped (confidence 1) [646EA349]
Copy OK
Track 11
Filename C:\11 - SAMBA DE LA BENDICION(SARAVA).wav
Pre-gap length 0:00:02.60
Peak level 98.7 %
Track quality 100.0 %
Test CRC 9C0D83CF
Copy CRC 9C0D83CF
Accurately ripped (confidence 1) [09B664F2]
Copy OK
All tracks accurately ripped
No errors occurred
End of status report
 
*.cue
REM GENRE "Bossa Nova"
REM DATE 1970
REM DISCID 9C084E0B
REM COMMENT "ExactAudioCopy v0.99pb4"
PERFORMER "Carlos Lyra"
TITLE "Sarava"
FILE "01 - Vacilada.wav" WAVE
TRACK 01 AUDIO
TITLE "Vacilada"
PERFORMER "Carlos Lyra"
INDEX 01 00:00:00
TRACK 02 AUDIO
TITLE "Quien te Manda?"
PERFORMER "Carlos Lyra"
INDEX 00 02:41:61
FILE "02 - Quien te Manda.wav" WAVE
INDEX 01 00:00:00
TRACK 03 AUDIO
TITLE "Para no Decir Adios"
PERFORMER "Carlos Lyra"
INDEX 00 03:12:02
FILE "03 - Para no Decir Adios.wav" WAVE
INDEX 01 00:00:00
TRACK 04 AUDIO
TITLE "Solo tu no Vienes"
PERFORMER "Carlos Lyra"
INDEX 00 03:41:51
FILE "04 - Solo tu no Vienes.wav" WAVE
INDEX 01 00:00:00
TRACK 05 AUDIO
TITLE "Balanceo"
PERFORMER "Carlos Lyra"
INDEX 00 01:58:16
FILE "05 - Balanceo.wav" WAVE
INDEX 01 00:00:00
TRACK 06 AUDIO
TITLE "Tristeza"
PERFORMER "Carlos Lyra"
INDEX 00 02:33:21
FILE "06 - Tristeza.wav" WAVE
INDEX 01 00:00:00
TRACK 07 AUDIO
TITLE "El Jacal"
PERFORMER "Carlos Lyra"
INDEX 00 03:44:54
FILE "07 - El Jacal.wav" WAVE
INDEX 01 00:00:00
TRACK 08 AUDIO
TITLE "Paz Sin Amor"
PERFORMER "Carlos Lyra"
INDEX 00 02:55:08
FILE "08 - Paz Sin Amor.wav" WAVE
INDEX 01 00:00:00
TRACK 09 AUDIO
TITLE "Viene Del Amor"
PERFORMER "Carlos Lyra"
INDEX 00 02:00:36
FILE "09 - Viene Del Amor.wav" WAVE
INDEX 01 00:00:00
TRACK 10 AUDIO
TITLE "Lugar Bonito"
PERFORMER "Carlos Lyra"
INDEX 00 01:45:52
FILE "10 - Lugar Bonito.wav" WAVE
INDEX 01 00:00:00
TRACK 11 AUDIO
TITLE "Samba de La Bendicion (Sarava)"
PERFORMER "Carlos Lyra"
INDEX 00 01:56:51
FILE "11 - Samba de La Bendicion (Sarava).wav" WAVE
INDEX 01 00:00:00
 
Audiochecker’s log
AUDIOCHECKER v2.0 beta (build 457) - by Dester - opdester@freemail.hu
~~~~~~~~~~~~~~~~~~~~~~~~~~~~~~~~~~
Started at: четверг, 10. 02. 2011. - 21:25.09
11 files found
01 -===- F:\My Documents\Music\Carlos Lyra - Sarava (1970) 2002 [flac]\01 - Vacilada.flac
Extracted successfully
Conclusion: this track is CDDA with probability 100%
Tempfile successfully deleted.
02 -===- F:\My Documents\Music\Carlos Lyra - Sarava (1970) 2002 [flac]\02 - Quien te Manda.flac
Extracted successfully
Conclusion: this track is CDDA with probability 85%
Tempfile successfully deleted.
03 -===- F:\My Documents\Music\Carlos Lyra - Sarava (1970) 2002 [flac]\03 - Para no Decir Adios.flac
Extracted successfully
Conclusion: this track is CDDA with probability 92%
Tempfile successfully deleted.
04 -===- F:\My Documents\Music\Carlos Lyra - Sarava (1970) 2002 [flac]\04 - Solo tu no Vienes.flac
Extracted successfully
Conclusion: this track is CDDA with probability 100%
Tempfile successfully deleted.
05 -===- F:\My Documents\Music\Carlos Lyra - Sarava (1970) 2002 [flac]\05 - Balanceo.flac
Extracted successfully
Conclusion: this track is CDDA with probability 100%
Tempfile successfully deleted.
06 -===- F:\My Documents\Music\Carlos Lyra - Sarava (1970) 2002 [flac]\06 - Tristeza.flac
Extracted successfully
Conclusion: this track is CDDA with probability 94%
Tempfile successfully deleted.
07 -===- F:\My Documents\Music\Carlos Lyra - Sarava (1970) 2002 [flac]\07 - El Jacal.flac
Extracted successfully
Conclusion: this track is CDDA with probability 100%
Tempfile successfully deleted.
08 -===- F:\My Documents\Music\Carlos Lyra - Sarava (1970) 2002 [flac]\08 - Paz Sin Amor.flac
Extracted successfully
Conclusion: this track is CDDA with probability 100%
Tempfile successfully deleted.
09 -===- F:\My Documents\Music\Carlos Lyra - Sarava (1970) 2002 [flac]\09 - Viene Del Amor.flac
Extracted successfully
Conclusion: this track is CDDA with probability 43%
Tempfile successfully deleted.
10 -===- F:\My Documents\Music\Carlos Lyra - Sarava (1970) 2002 [flac]\10 - Lugar Bonito.flac
Extracted successfully
Conclusion: this track is CDDA with probability 100%
Tempfile successfully deleted.
11 -===- F:\My Documents\Music\Carlos Lyra - Sarava (1970) 2002 [flac]\11 - Samba de La Bendicion (Sarava).flac
Extracted successfully
Conclusion: this track is CDDA with probability 100%
Tempfile successfully deleted.
Finished at: четверг, 10. 02. 2011. - 21:43.27 (operation time: 0:18.18)



Сидирую до первых 10-ти скачавших. Далее раздача поддерживается силами скачавших.
Скачали сами - дайте скачать другим. .
20:25
316
Нет комментариев. Ваш будет первым!