Поиск

(Jazz-Fusion,Afro Latin Big Band) Roland Vazquez Band/feat.James Genus,Ignacio Berroa,Samuel Torres/ - The Visitor - 2010, APE (image+.cue) lossless

Треклист:
Roland Vazquez Band/feat.James Genus,Ignacio Berroa,Samuel Torres/ / The Visitor
Жанр: Jazz-Fusion,Afro Latin Big Band
Страна-производитель диска: USA
Год издания диска: 2010
Издатель (лейбл): Roland Music
Страна: USA
Аудио кодек: APE (*.ape)
Тип рипа: image+.cue
Битрейт аудио: lossless
Продолжительность: 01:12:32
Источник (релизер): рип из личного архива
Наличие сканов в содержимом раздачи: да
Треклист:
1.Urantia
2.Thru A Window
3.The Visitor
4.Whirlpool
5.Sevilla
6.Guarabe'
7.The Path Of Change
 
Лог создания рипа
Exact Audio Copy V0.99 prebeta 4 from 23. January 2008
Отчёт EAC об извлечении, выполненном 2. февраля 2011, 0:47
Roland Vazquez Band / The Visitor
Дисковод: _NEC DVD_RW ND-2510A Adapter: 1 ID: 0
Режим чтения : Достоверность
Использование точного потока : Да
Отключение кэша аудио : Да
Использование указателей C2 : Нет
Коррекция смещения при чтении : 48
Способность читать области Lead-in и Lead-out : Нет
Заполнение пропущенных сэмплов тишиной : Да
Удаление блоков с тишиной в начале и конце : Нет
При вычислениях CRC использовались нулевые сэмплы : Да
Интерфейс : Встроенный Win32-интерфейс для Win NT/2000
Выходной формат : Внутренние WAV-операции
Формат сэмплов : 44.100 Гц; 16 бит; стерео
TOC извлечённого CD
Трек | Старт | Длительность | Начальный сектор | Конечный сектор
---------------------------------------------------------------------
1 | 0:00.00 | 12:21.32 | 0 | 55606
2 | 12:21.32 | 10:59.00 | 55607 | 105031
3 | 23:20.32 | 11:17.40 | 105032 | 155846
4 | 34:37.72 | 8:34.03 | 155847 | 194399
5 | 43:12.00 | 9:20.00 | 194400 | 236399
6 | 52:32.00 | 9:05.52 | 236400 | 277326
7 | 61:37.52 | 10:54.28 | 277327 | 326404
Характеристики диапазона извлечения и сообщения об ошибках
Выбранный диапазон
Имя файла E:\ПРОЕКТ\Roland Vazquez Band-The Visitor 2010\Roland Vazquez Band - The Visitor.wav
Пиковый уровень 98.8 %
Качество диапазона 100.0 %
CRC теста FFCF2019
CRC копии FFCF2019
Копирование... OK
Ошибок не произошло
AccurateRip: сводка
Трек 1 нет в базе данных
Трек 2 нет в базе данных
Трек 3 нет в базе данных
Трек 4 нет в базе данных
Трек 5 нет в базе данных
Трек 6 нет в базе данных
Трек 7 нет в базе данных
Ни одного трека нет в базе AccurateRip
Конец отчёта
Доп. информация: 22 Музыканта принимают участие в этом проекте
просмотреть их можно в обложках,которые есть в раздаче.
 
Об альбоме (сборнике)
Отличная работа Percussion
 
Состав
Roland Vazquez (compeser/conductor)
20:24
277
Нет комментариев. Ваш будет первым!