Вы используете незарегистрированную версию компонента "Вкладки"!

Поиск

(Post Bop, Free Jazz) John Coltrane - Impressions - 1963, FLAC (image+.cue), lossless

(Post Bop, Free Jazz) John Coltrane - Impressions - 1963, FLAC (image+.cue), lossless
Треклист:
John Coltrane - Impressions
Жанр: Post Bop, Free Jazz
Страна-производитель диска: USA
Год издания: 1963
Издатель (лейбл): Impulse!
Номер по каталогу: B0010967-02 (AS-42)
Страна: USA
Аудиокодек: FLAC (*.flac)
Тип рипа: image+.cue
Битрейт аудио: lossless
Продолжительность: 36:35
Источник (релизер): собственный рип
Наличие сканов в содержимом раздачи: да
Треклист:
1. India
2. Up 'Gainst The Wall
3. Impressions
4. After The Rain
 
EAC log
Exact Audio Copy V1.0 beta 3 from 29. August 2011
Отчёт EAC об извлечении, выполненном 11. октября 2013, 20:37
John Coltrane / Impressions
Дисковод: HL-DT-STBDDVDRW CH10LS20 Adapter: 2 ID: 1
Режим чтения : Достоверность
Использование точного потока : Да
Отключение кэша аудио : Да
Использование указателей C2 : Нет
Коррекция смещения при чтении : 667
Способность читать области Lead-in и Lead-out : Нет
Заполнение пропущенных сэмплов тишиной : Да
Удаление блоков с тишиной в начале и конце : Нет
При вычислениях CRC использовались нулевые сэмплы : Да
Интерфейс : Встроенный Win32-интерфейс для Win NT/2000
Выходной формат : Пользовательский кодировщик
Выбранный битрейт : 128 kBit/s
Качество : Высокий
Добавление ID3-тега : Нет
Утилита сжатия : C:\Program Files\Exact Audio Copy\FLAC\FLAC.EXE
Дополнительные параметры : -V -8 -T "Date=%year%" -T "Genre=%genre%" %source%
TOC извлечённого CD
Трек | Старт | Длительность | Начальный сектор | Конечный сектор
---------------------------------------------------------------------
1 | 0:00.00 | 14:09.27 | 0 | 63701
2 | 14:09.27 | 3:14.00 | 63702 | 78251
3 | 17:23.27 | 15:01.63 | 78252 | 145889
4 | 32:25.15 | 4:09.34 | 145890 | 164598
Характеристики диапазона извлечения и сообщения об ошибках
Выбранный диапазон
Имя файла D:\DL\John Coltrane - Impressions\John Coltrane - Impressions.wav
Пиковый уровень 100.0 %
Скорость извлечения 1.8 X
Качество диапазона 100.0 %
CRC теста C6560F0B
CRC копии C6560F0B
Копирование... OK
Ошибок не произошло
AccurateRip: сводка
Трек 1 : извлечено точно (доверие 16) [485B5968] (AR v2)
Трек 2 : извлечено точно (доверие 16) [A6168414] (AR v2)
Трек 3 : извлечено точно (доверие 16) [76EF8B74] (AR v2)
Трек 4 : извлечено точно (доверие 16) [F3B7D682] (AR v2)
Все треки извлечены точно
Конец отчёта
==== Контрольная сумма отчёта A0FF5B4F76FF055B1496DE15AA0AD43BA3D7EC705305A4E08B2B5F1A4A7B3C9B ====
 
CUETools log
[CUETools log; Date: 12.10.2013 23:19:27; Version: 2.1.4]
[CTDB TOCID: msjnJ1RMk1xnjZ4sY8bycYoTyVU-] found.
Track | CTDB Status
1 | (13/13) Accurately ripped
2 | (13/13) Accurately ripped
3 | (13/13) Accurately ripped
4 | (13/13) Accurately ripped
[AccurateRip ID: 0006e75b-001afd0c-2f089204] found.
Track [ CRC | V2 ] Status
01 [cd2a55a2|485b5968] (17+16/33) Accurately ripped
02 [ca9f8996|a6168414] (17+16/33) Accurately ripped
03 [191611d5|76ef8b74] (17+16/33) Accurately ripped
04 [ab0fcfd1|f3b7d682] (16+16/32) Accurately ripped
Track Peak [ CRC32 ] [W/O NULL] [ LOG ]
-- 100,0 [C6560F0B] [D94CC148] CRC32
01 100,0 [37BD6964] [BE4307E3]
02 100,0 [ADBA5624] [35E8B898]
03 100,0 [0B262DF5] [75ADDDCC]
04 97,9 [6D6F4152] [99AAF71A]
 
auCDtect
-----------------------
DON'T MODIFY THIS FILE
-----------------------
PERFORMER: auCDtect Task Manager, ver. 1.6.0 RC1 build 1.6.0.1
Copyright (c) 2008-2010 y-soft. All rights reserved
http://y-soft.org
ANALYZER: auCDtect: CD records authenticity detector, version 0.8.2
Copyright (c) 2004 Oleg Berngardt. All rights reserved.
Copyright (c) 2004 Alexander Djourik. All rights reserved.
FILE: John Coltrane - Impressions.flac
Size: 280097788 Hash: 150E0CB0F54515759E25496B00715B98 Accuracy: -m0
Conclusion: CDDA 100%
Signature: 34040DEE52C499973173028352BA4D94F40882AA
 
Состав
John Coltrane, tenor & soprano sax
Eric Dolphy, bass clarinet
McCoy Tyner, piano
Jimmy Garrison, Reggie Workman, basses
Roy Haynes, Elvin Jones, drums
Другие раздачи альбома:
John Coltrane - Impressions (w/ bonus track)
John Coltrane - Impressions (1987 Germany MCD 05887)
 
CUETools John Coltrane - Impressions (1987 Germany MCD 05887)
[CUETools log; Date: 12.10.2013 23:17:57; Version: 2.1.4]
Pregap length 00:00:33.
[CTDB TOCID: 2GOoqtfEBHp6sRWwAGBm5imkJeI-] disk not present in database.
[AccurateRip ID: 0006e7e8-001afd00-31089104] found.
Track [ CRC | V2 ] Status
01 [2615a5c0|96170801] (05+06/17) Accurately ripped
02 [831d9304|66bdf814] (05+06/17) Accurately ripped
03 [97824d8d|90ff0103] (05+06/17) Accurately ripped
04 [e399dbec|d27e2e13] (05+06/17) Accurately ripped
Offsetted by -669:
01 [46175508] (02/17) Accurately ripped
02 [628757a5] (02/17) Accurately ripped
03 [4dd25b80] (02/17) Accurately ripped
04 [73fb526f] (02/17) Accurately ripped
Offsetted by -57:
01 [44dd8bb5] (02/17) Accurately ripped
02 [42f722f1] (02/17) Accurately ripped
03 [79493731] (02/17) Accurately ripped
04 [5b7dd987] (02/17) Accurately ripped
Track Peak [ CRC32 ] [W/O NULL]
-- 85,3 [8A1E3EC1] [2D992819]
01 81,5 [9F5ECDCA] [454ADCAC]
02 71,2 [C0D597B5] [80ABCF46]
03 85,3 [343D86FB] [868D83D7]
04 45,2 [AF81C2C5] [21765D1E]
По всем вопросам пишите личное сообщение пользователю M0p94ok.
19:14
217
Нет комментариев. Ваш будет первым!