Вы используете незарегистрированную версию компонента "Вкладки"!

Поиск

(Modern Creative, Free Improvisation) Matt Mitchell - Fiction - 2013, FLAC (tracks+.cue), lossless

(Modern Creative, Free Improvisation) Matt Mitchell - Fiction - 2013, FLAC (tracks+.cue), lossless
Треклист:
Matt MitchellFiction Жанр: Modern Creative, Free Improvisation
Год издания: 2013
Издатель (лейбл): Pi Recordings
Номер по каталогу: PI50
Аудиокодек: FLAC (*.flac)
Тип рипа: tracks+.cue
Битрейт аудио: lossless
Продолжительность: 1:06:22
Источник (релизер): CD (спасибо stuggy)
Наличие сканов в содержимом раздачи: нет
Треклист:
01. Veins 6:20
02. Brain Color 3:02
03. Upright 3:13
04. Singe 4:06
05. Wanton Eon 3:34
06. Dadaist Flu 6:10
07. Commas 2:35
08. Id Balm 3:10
09. Ohm Nuggets 3:27
10. Diction 4:28
11. Tether 2:58
12. Action Field 10:52
13. Specialty Hug 3:56
14. Nightmare Tesseract 4:30
15. Narcotic Bases 4:02
 
Лог создания рипа
X Lossless Decoder version 20130720 (144.0)
XLD extraction logfile from 2013-10-15 09:47:45 +0100
Matt Mitchell / Fiction
Used drive : MATSHITA DVD-R UJ-8A8 (revision HB14)
Media type : Pressed CD
Ripper mode : XLD Secure Ripper
Disable audio cache : OK for the drive with a cache less than 1375KiB
Make use of C2 pointers : NO
Read offset correction : 102
Max retry count : 20
Gap status : Analyzed, Appended (except HTOA)
TOC of the extracted CD
Track | Start | Length | Start sector | End sector
---------------------------------------------------------
1 | 00:00:00 | 06:19:48 | 0 | 28472
2 | 06:19:48 | 03:01:62 | 28473 | 42109
3 | 09:21:35 | 03:12:46 | 42110 | 56555
4 | 12:34:06 | 04:06:10 | 56556 | 75015
5 | 16:40:16 | 03:34:15 | 75016 | 91080
6 | 20:14:31 | 06:10:27 | 91081 | 118857
7 | 26:24:58 | 02:35:01 | 118858 | 130483
8 | 28:59:59 | 03:09:50 | 130484 | 144708
9 | 32:09:34 | 03:26:52 | 144709 | 160210
10 | 35:36:11 | 04:28:23 | 160211 | 180333
11 | 40:04:34 | 02:58:30 | 180334 | 193713
12 | 43:02:64 | 10:51:63 | 193714 | 242601
13 | 53:54:52 | 03:56:31 | 242602 | 260332
14 | 57:51:08 | 04:29:40 | 260333 | 280547
15 | 62:20:48 | 04:01:44 | 280548 | 298666
AccurateRip Summary
Disc not found in AccurateRip DB.
All Tracks
Album gain : -6.15 dB
Peak : 0.988983
Statistics
Read error : 0
Jitter error (maybe fixed) : 0
Retry sector count : 0
Damaged sector count : 0
Track 01
Filename : /Users/stewartspiers/Music/WHAT-DOT-RIPS/Matt Mitchell - Fiction (2013) (FLAC)/Matt Mitchell - Fiction (2013) [FLAC]/01 Veins.flac
Pre-gap length : 00:02:00
Track gain : -5.14 dB
Peak : 0.988739
CRC32 hash (test run) : 2F6CB716
CRC32 hash : 2F6CB716
CRC32 hash (skip zero) : 47F3F574
AccurateRip v1 signature : 98CD3F7A
AccurateRip v2 signature : 60871C03
->Track not present in AccurateRip database.
Statistics
Read error : 0
Jitter error (maybe fixed) : 0
Retry sector count : 0
Damaged sector count : 0
Track 02
Filename : /Users/stewartspiers/Music/WHAT-DOT-RIPS/Matt Mitchell - Fiction (2013) (FLAC)/Matt Mitchell - Fiction (2013) [FLAC]/02 Brain Color.flac
Pre-gap length : 00:00:31
Track gain : -5.80 dB
Peak : 0.988800
CRC32 hash (test run) : 6184441D
CRC32 hash : 6184441D
CRC32 hash (skip zero) : 72CADC53
AccurateRip v1 signature : 8AA21F89
AccurateRip v2 signature : 3CEC5591
->Track not present in AccurateRip database.
Statistics
Read error : 0
Jitter error (maybe fixed) : 0
Retry sector count : 0
Damaged sector count : 0
Track 03
Filename : /Users/stewartspiers/Music/WHAT-DOT-RIPS/Matt Mitchell - Fiction (2013) (FLAC)/Matt Mitchell - Fiction (2013) [FLAC]/03 Upright.flac
Pre-gap length : 00:00:16
Track gain : -5.43 dB
Peak : 0.988831
CRC32 hash (test run) : 0D0F931F
CRC32 hash : 0D0F931F
CRC32 hash (skip zero) : CB9E6D16
AccurateRip v1 signature : 7A652324
AccurateRip v2 signature : 2F29220C
->Track not present in AccurateRip database.
Statistics
Read error : 0
Jitter error (maybe fixed) : 0
Retry sector count : 0
Damaged sector count : 0
Track 04
Filename : /Users/stewartspiers/Music/WHAT-DOT-RIPS/Matt Mitchell - Fiction (2013) (FLAC)/Matt Mitchell - Fiction (2013) [FLAC]/04 Singe.flac
Pre-gap length : 00:01:12
Track gain : -6.76 dB
Peak : 0.988831
CRC32 hash (test run) : A98FEE6D
CRC32 hash : A98FEE6D
CRC32 hash (skip zero) : 5FDEA88C
AccurateRip v1 signature : C6C7A1B5
AccurateRip v2 signature : 026FF18C
->Track not present in AccurateRip database.
Statistics
Read error : 0
Jitter error (maybe fixed) : 0
Retry sector count : 0
Damaged sector count : 0
Track 05
Filename : /Users/stewartspiers/Music/WHAT-DOT-RIPS/Matt Mitchell - Fiction (2013) (FLAC)/Matt Mitchell - Fiction (2013) [FLAC]/05 Wanton Eon.flac
Pre-gap length : 00:00:03
Track gain : -3.67 dB
Peak : 0.823547
CRC32 hash (test run) : CF8BF8BF
CRC32 hash : CF8BF8BF
CRC32 hash (skip zero) : 7EA473AE
AccurateRip v1 signature : A9708954
AccurateRip v2 signature : 00FA042F
->Track not present in AccurateRip database.
Statistics
Read error : 0
Jitter error (maybe fixed) : 0
Retry sector count : 0
Damaged sector count : 0
Track 06
Filename : /Users/stewartspiers/Music/WHAT-DOT-RIPS/Matt Mitchell - Fiction (2013) (FLAC)/Matt Mitchell - Fiction (2013) [FLAC]/06 Dadaist Flu.flac
Pre-gap length : 00:02:18
Track gain : -5.78 dB
Peak : 0.988739
CRC32 hash (test run) : 3DA20AD9
CRC32 hash : 3DA20AD9
CRC32 hash (skip zero) : 52E124AB
AccurateRip v1 signature : 52328A90
AccurateRip v2 signature : 71D53651
->Track not present in AccurateRip database.
Statistics
Read error : 0
Jitter error (maybe fixed) : 0
Retry sector count : 0
Damaged sector count : 0
Track 07
Filename : /Users/stewartspiers/Music/WHAT-DOT-RIPS/Matt Mitchell - Fiction (2013) (FLAC)/Matt Mitchell - Fiction (2013) [FLAC]/07 Commas.flac
Pre-gap length : 00:00:27
Track gain : -6.16 dB
Peak : 0.988861
CRC32 hash (test run) : 284137F5
CRC32 hash : 284137F5
CRC32 hash (skip zero) : 1EEAD3ED
AccurateRip v1 signature : 34919AB1
AccurateRip v2 signature : 74A626F4
->Track not present in AccurateRip database.
Statistics
Read error : 0
Jitter error (maybe fixed) : 0
Retry sector count : 0
Damaged sector count : 0
Track 08
Filename : /Users/stewartspiers/Music/WHAT-DOT-RIPS/Matt Mitchell - Fiction (2013) (FLAC)/Matt Mitchell - Fiction (2013) [FLAC]/08 Id Balm.flac
Pre-gap length : 00:02:09
Track gain : -3.65 dB
Peak : 0.921509
CRC32 hash (test run) : FEE3A125
CRC32 hash : FEE3A125
CRC32 hash (skip zero) : F81A076A
AccurateRip v1 signature : 6E7C2EA5
AccurateRip v2 signature : 4B731AE7
->Track not present in AccurateRip database.
Statistics
Read error : 0
Jitter error (maybe fixed) : 0
Retry sector count : 0
Damaged sector count : 0
Track 09
Filename : /Users/stewartspiers/Music/WHAT-DOT-RIPS/Matt Mitchell - Fiction (2013) (FLAC)/Matt Mitchell - Fiction (2013) [FLAC]/09 Ohm Nuggets.flac
Pre-gap length : 00:01:46
Track gain : -6.75 dB
Peak : 0.988983
CRC32 hash (test run) : 2ED73F21
CRC32 hash : 2ED73F21
CRC32 hash (skip zero) : FCC2F97D
AccurateRip v1 signature : 6D01C30F
AccurateRip v2 signature : 3C0AB4B1
->Track not present in AccurateRip database.
Statistics
Read error : 0
Jitter error (maybe fixed) : 0
Retry sector count : 0
Damaged sector count : 0
Track 10
Filename : /Users/stewartspiers/Music/WHAT-DOT-RIPS/Matt Mitchell - Fiction (2013) (FLAC)/Matt Mitchell - Fiction (2013) [FLAC]/10 Diction.flac
Pre-gap length : 00:00:69
Track gain : -4.99 dB
Peak : 0.988312
CRC32 hash (test run) : E0CCC5CC
CRC32 hash : E0CCC5CC
CRC32 hash (skip zero) : BA582637
AccurateRip v1 signature : 3605E4E7
AccurateRip v2 signature : 79169DF2
->Track not present in AccurateRip database.
Statistics
Read error : 0
Jitter error (maybe fixed) : 0
Retry sector count : 0
Damaged sector count : 0
Track 11
Filename : /Users/stewartspiers/Music/WHAT-DOT-RIPS/Matt Mitchell - Fiction (2013) (FLAC)/Matt Mitchell - Fiction (2013) [FLAC]/11 Tether.flac
Pre-gap length : 00:00:05
Track gain : -6.65 dB
Peak : 0.988861
CRC32 hash (test run) : 254B5B91
CRC32 hash : 254B5B91
CRC32 hash (skip zero) : 8877C79F
AccurateRip v1 signature : DE21F888
AccurateRip v2 signature : 2B6178FA
->Track not present in AccurateRip database.
Statistics
Read error : 0
Jitter error (maybe fixed) : 0
Retry sector count : 0
Damaged sector count : 0
Track 12
Filename : /Users/stewartspiers/Music/WHAT-DOT-RIPS/Matt Mitchell - Fiction (2013) (FLAC)/Matt Mitchell - Fiction (2013) [FLAC]/12 Action Field.flac
Track gain : -7.17 dB
Peak : 0.988861
CRC32 hash (test run) : 3963C3CF
CRC32 hash : 3963C3CF
CRC32 hash (skip zero) : D169D33E
AccurateRip v1 signature : 9BC31345
AccurateRip v2 signature : 28CEEEF8
->Track not present in AccurateRip database.
Statistics
Read error : 0
Jitter error (maybe fixed) : 0
Retry sector count : 0
Damaged sector count : 0
Track 13
Filename : /Users/stewartspiers/Music/WHAT-DOT-RIPS/Matt Mitchell - Fiction (2013) (FLAC)/Matt Mitchell - Fiction (2013) [FLAC]/13 Specialty Hug.flac
Pre-gap length : 00:00:48
Track gain : -3.25 dB
Peak : 0.952545
CRC32 hash (test run) : 3D920B74
CRC32 hash : 3D920B74
CRC32 hash (skip zero) : 1C3F5ACA
AccurateRip v1 signature : 1CF22725
AccurateRip v2 signature : E8F31B88
->Track not present in AccurateRip database.
Statistics
Read error : 0
Jitter error (maybe fixed) : 0
Retry sector count : 0
Damaged sector count : 0
Track 14
Filename : /Users/stewartspiers/Music/WHAT-DOT-RIPS/Matt Mitchell - Fiction (2013) (FLAC)/Matt Mitchell - Fiction (2013) [FLAC]/14 Nightmare Tesseract.flac
Pre-gap length : 00:00:05
Track gain : -6.97 dB
Peak : 0.988983
CRC32 hash (test run) : 26A5C050
CRC32 hash : 26A5C050
CRC32 hash (skip zero) : D366CC12
AccurateRip v1 signature : 59924B61
AccurateRip v2 signature : BD6A5EDE
->Track not present in AccurateRip database.
Statistics
Read error : 0
Jitter error (maybe fixed) : 0
Retry sector count : 0
Damaged sector count : 0
Track 15
Filename : /Users/stewartspiers/Music/WHAT-DOT-RIPS/Matt Mitchell - Fiction (2013) (FLAC)/Matt Mitchell - Fiction (2013) [FLAC]/15 Narcotic Bases.flac
Pre-gap length : 00:03:46
Track gain : 0.44 dB
Peak : 0.590668
CRC32 hash (test run) : 1FD72542
CRC32 hash : 1FD72542
CRC32 hash (skip zero) : C0300587
AccurateRip v1 signature : B498F7FA
AccurateRip v2 signature : 7D40659B
->Track not present in AccurateRip database.
Statistics
Read error : 0
Jitter error (maybe fixed) : 0
Retry sector count : 0
Damaged sector count : 0
No errors occurred
End of status report
 
Содержание индексной карты (.CUE)
TITLE "Fiction"
PERFORMER "Matt Mitchell"
REM GENRE "Jazz"
REM DATE "2013"
REM DISCNUMBER 1
REM TOTALDISCS 1
REM DISCID C60F8E0F
REM REPLAYGAIN_ALBUM_GAIN -6.15 dB
REM REPLAYGAIN_ALBUM_PEAK 0.988983
FILE "01 Veins.flac" WAVE
TRACK 01 AUDIO
TITLE "Veins"
REM REPLAYGAIN_TRACK_GAIN -5.14 dB
REM REPLAYGAIN_TRACK_PEAK 0.988739
INDEX 01 00:00:00
TRACK 02 AUDIO
TITLE "Brain Color"
REM REPLAYGAIN_TRACK_GAIN -5.80 dB
REM REPLAYGAIN_TRACK_PEAK 0.988800
INDEX 00 06:19:17
FILE "02 Brain Color.flac" WAVE
INDEX 01 00:00:00
TRACK 03 AUDIO
TITLE "Upright"
REM REPLAYGAIN_TRACK_GAIN -5.43 dB
REM REPLAYGAIN_TRACK_PEAK 0.988831
INDEX 00 03:01:46
FILE "03 Upright.flac" WAVE
INDEX 01 00:00:00
TRACK 04 AUDIO
TITLE "Singe"
REM REPLAYGAIN_TRACK_GAIN -6.76 dB
REM REPLAYGAIN_TRACK_PEAK 0.988831
INDEX 00 03:11:34
FILE "04 Singe.flac" WAVE
INDEX 01 00:00:00
TRACK 05 AUDIO
TITLE "Wanton Eon"
REM REPLAYGAIN_TRACK_GAIN -3.67 dB
REM REPLAYGAIN_TRACK_PEAK 0.823547
INDEX 00 04:06:07
FILE "05 Wanton Eon.flac" WAVE
INDEX 01 00:00:00
TRACK 06 AUDIO
TITLE "Dadaist Flu"
REM REPLAYGAIN_TRACK_GAIN -5.78 dB
REM REPLAYGAIN_TRACK_PEAK 0.988739
INDEX 00 03:31:72
FILE "06 Dadaist Flu.flac" WAVE
INDEX 01 00:00:00
TRACK 07 AUDIO
TITLE "Commas"
REM REPLAYGAIN_TRACK_GAIN -6.16 dB
REM REPLAYGAIN_TRACK_PEAK 0.988861
INDEX 00 06:10:00
FILE "07 Commas.flac" WAVE
INDEX 01 00:00:00
TRACK 08 AUDIO
TITLE "Id Balm"
REM REPLAYGAIN_TRACK_GAIN -3.65 dB
REM REPLAYGAIN_TRACK_PEAK 0.921509
INDEX 00 02:32:67
FILE "08 Id Balm.flac" WAVE
INDEX 01 00:00:00
TRACK 09 AUDIO
TITLE "Ohm Nuggets"
REM REPLAYGAIN_TRACK_GAIN -6.75 dB
REM REPLAYGAIN_TRACK_PEAK 0.988983
INDEX 00 03:08:04
FILE "09 Ohm Nuggets.flac" WAVE
INDEX 01 00:00:00
TRACK 10 AUDIO
TITLE "Diction"
REM REPLAYGAIN_TRACK_GAIN -4.99 dB
REM REPLAYGAIN_TRACK_PEAK 0.988312
INDEX 00 03:25:58
FILE "10 Diction.flac" WAVE
INDEX 01 00:00:00
TRACK 11 AUDIO
TITLE "Tether"
REM REPLAYGAIN_TRACK_GAIN -6.65 dB
REM REPLAYGAIN_TRACK_PEAK 0.988861
INDEX 00 04:28:18
FILE "11 Tether.flac" WAVE
INDEX 01 00:00:00
FILE "12 Action Field.flac" WAVE
TRACK 12 AUDIO
TITLE "Action Field"
REM REPLAYGAIN_TRACK_GAIN -7.17 dB
REM REPLAYGAIN_TRACK_PEAK 0.988861
INDEX 01 00:00:00
TRACK 13 AUDIO
TITLE "Specialty Hug"
REM REPLAYGAIN_TRACK_GAIN -3.25 dB
REM REPLAYGAIN_TRACK_PEAK 0.952545
INDEX 00 10:51:15
FILE "13 Specialty Hug.flac" WAVE
INDEX 01 00:00:00
TRACK 14 AUDIO
TITLE "Nightmare Tesseract"
REM REPLAYGAIN_TRACK_GAIN -6.97 dB
REM REPLAYGAIN_TRACK_PEAK 0.988983
INDEX 00 03:56:26
FILE "14 Nightmare Tesseract.flac" WAVE
INDEX 01 00:00:00
TRACK 15 AUDIO
TITLE "Narcotic Bases"
REM REPLAYGAIN_TRACK_GAIN 0.44 dB
REM REPLAYGAIN_TRACK_PEAK 0.590668
INDEX 00 04:25:69
FILE "15 Narcotic Bases.flac" WAVE
INDEX 01 00:00:00
 
Лог проверки качества
-----------------------
DON'T MODIFY THIS FILE
-----------------------
PERFORMER: auCDtect Task Manager, ver. 1.6.0 RC1 build 1.6.0.1
Copyright (c) 2008-2010 y-soft. All rights reserved
http://y-soft.org
ANALYZER: auCDtect: CD records authenticity detector, version 0.8.2
Copyright (c) 2004 Oleg Berngardt. All rights reserved.
Copyright (c) 2004 Alexander Djourik. All rights reserved.
FILE: 14 Nightmare Tesseract.flac
Size: 29262351 Hash: 2D25705C50A6C732D88EB768022A0557 Accuracy: -m0
Conclusion: CDDA 100%
Signature: 11301638EA03E4BAF45600526CE4B6D5A0329D96
FILE: 13 Specialty Hug.flac
Size: 19017820 Hash: 86CF933834936521ADF187D1E1B3685F Accuracy: -m0
Conclusion: CDDA 100%
Signature: A90AD3743D8C6B87AA308583F705A2B1959C9A1F
FILE: 12 Action Field.flac
Size: 71811797 Hash: 3F1A60E9815686EC7660C09515FC19EC Accuracy: -m0
Conclusion: CDDA 100%
Signature: CD3A3BB704FEFB0DF2CCBE1CFB522D578FEA913B
FILE: 11 Tether.flac
Size: 18251765 Hash: 6A10405E32CF3F3D54EAC8286C965845 Accuracy: -m0
Conclusion: CDDA 100%
Signature: 6F25597CC25763842EFE952C710A3AECA0637A75
FILE: 10 Diction.flac
Size: 22646372 Hash: 73FF49364B999A2320FAB84F5C0D1CAB Accuracy: -m0
Conclusion: CDDA 100%
Signature: 74D87CA3A1005D5F3BF442B67BBC99B03C0D6B73
FILE: 09 Ohm Nuggets.flac
Size: 23818904 Hash: 3801149917578970435B313B8C2903DC Accuracy: -m0
Conclusion: CDDA 100%
Signature: 5DC0A812A8FD3339D3A500304907FA99C45AE6D8
FILE: 08 Id Balm.flac
Size: 16833388 Hash: 99357BEA7C8016245AAF2772A761468F Accuracy: -m0
Conclusion: CDDA 100%
Signature: CF111BA444A2A7761BF61223CDEB00F361A17ED7
FILE: 07 Commas.flac
Size: 15096029 Hash: 85096505A8D94AAA2F2C2C17AD2403BC Accuracy: -m0
Conclusion: CDDA 100%
Signature: E5461F054B3F2AFF455B6DAD1AE710A63A7BA21B
FILE: 06 Dadaist Flu.flac
Size: 37619604 Hash: 887ACE7DBE7C9F4ED41664677C2580E4 Accuracy: -m0
Conclusion: CDDA 100%
Signature: 06D4CF10F15818552C3076197F075813D6EBD485
FILE: 05 Wanton Eon.flac
Size: 17844730 Hash: 1BD6E281A1762F2594A885C886437966 Accuracy: -m0
Conclusion: CDDA 92%
Signature: 6EEF8EDBBFD3C8A981A6BFFA6581511DAF3E035B
FILE: 04 Singe.flac
Size: 26617811 Hash: 65BEEF611E593728E8ED70BE7DD6B2E5 Accuracy: -m0
Conclusion: CDDA 100%
Signature: 91CA1D5ACB24BE5C4217BAB8FFD5007C8DE48573
FILE: 03 Upright.flac
Size: 22048464 Hash: 675A04592D7818FFD81EFFBACCD7FCC0 Accuracy: -m0
Conclusion: CDDA 99%
Signature: 820F71CA3FF89D6F4F7C1D95C858934FD10B6201
FILE: 02 Brain Color.flac
Size: 18737539 Hash: ED5DD74C99F2247DD873C682565FA6FC Accuracy: -m0
Conclusion: CDDA 100%
Signature: 567435C326244685821561C167DE9A4077D03609
FILE: 01 Veins.flac
Size: 41992134 Hash: E8540A1098A8067D80041C5A6B96448E Accuracy: -m0
Conclusion: CDDA 100%
Signature: D69B84DF204E616556DBEB100637DC52276353A1
 
Состав
Matt Mitchell - piano
Ches Smith - drums, percussion, vibraphone.
 
Review by Mark Corroto
Pianist Matt Mitchell's debut solo recording, Fiction, is actually a duo recording. And while it is a performance of fifteen compositions, the music was originally conceived of as etudes, or short pieces—exercises to improve the pianist's ability to incorporate improvisation into composed music.
Mitchell is quite the in-demand sideman. He can be heard in Tim Berne's Snakeoil, Dave Douglas' Quintet, Darius Jones' Quartet, John Hollenbeck's Claudia Quintet, and in the bands of Michael Attias and Rudresh Mahanthappa.
This recording found its roots in Berne's Snakeoil tours when drummer Ches Smith began to play along with Mitchell's etudes. Smith is a player equally conversant in the languages of jazz and DIY rock. For him, swing and smash are confederates. He plays in the bands of Marc Ribot, and Mary Halvorson, and leads his own trio and quintet.
These etudes, presented for piano and drums, can best be described as Cecil Taylor plays Scarlatti. Mitchell employs extreme changes and twisting intervals, scraping odd rhythms against changing harmonics. The duo makes for a sympathetic pairing. Smith reads and interprets the pieces, matching Mitchell's percussive attack on "Upright," mimicking his funny walk on "Singe," and tracing (with vibraphone) the mathematical melody of "Wanton Eon."
The dense, ever-changing compositions give little respite to the ear. Mitchell's "Brain Color" is a hallucination that gives the impression of deconstructing Thelonious Monk's "Round Midnight." Here, he out-angles Monk's angular music. Mitchell hints at the melody like a hip-hop DJ, sampling pieces and parts of a dream Thelonious might have had. Mitchell and Smith pummel notes into the shape—but not necessarily the language—of Monk, but instead the late pianist's spirit. These exercises exhaust, invigorate, and ultimately inspire.
Any questions -> support@pro-jazz.com. По всем вопросам пишите -> support@pro-jazz.com
19:14
162
Нет комментариев. Ваш будет первым!