Вы используете незарегистрированную версию компонента "Вкладки"!

Поиск

(Avant-Garde, Modern Creative, Sound Aspects) Andy Laster (with Herb Robertson, Ed Schuller, Tom Rainey) - Hydra - 1994, FLAC (tracks+.cue), lossless

(Avant-Garde, Modern Creative, Sound Aspects) Andy Laster (with Herb Robertson, Ed Schuller, Tom Rainey) - Hydra - 1994, FLAC (tracks+.cue), lossless
Треклист:
Andy Laster / Hydra
Жанр: Avant-Garde, Modern Creative, Sound Aspects
Страна-производитель диска: Germany
Год издания: 1994
Издатель (лейбл): Sound Aspects
Номер по каталогу: SAS 051
Аудиокодек: FLAC (*.flac)
Тип рипа: tracks+.cue
Битрейт аудио: lossless
Продолжительность: 1:02:16
Источник (релизер): я
Наличие сканов в содержимом раздачи: да
Треклист:
01. Hagia Sophia (5:23)
02. The Four Questions (4:52)
03. Canto I (1:42)
04. Radbaz (6:29)
05. Eelpout (4:52)
06. Canto II (1:34)
07. Cluniac (6:55)
08. Their Last End (4:53)
09. Canto III (2:17)
10. The Rocket Club (5:25)
11. Parachute (5:41)
12. Canto IV (2:16)
13. Darshon (7:33)
14. Canto V (2:26)
All compositions by Andy Laster.
Recorded live on January 17 & 18, 1992 at East Hill Studios, New York City.
Andy Laster – Alto & Baritone Sax, Flute
Herb Robertson – Trumpet & Cornet
Ed Schuller – Bass
Tom Rainey – Drums
 
Лог создания рипа
Exact Audio Copy V1.0 beta 3 from 29. August 2011
EAC extraction logfile from 16. October 2013, 19:10
Andy Laster / Hydra
Used drive : SlimtypeeNAU508 5 Adapter: 1 ID: 0
Read mode : Secure
Utilize accurate stream : Yes
Defeat audio cache : Yes
Make use of C2 pointers : No
Read offset correction : 6
Overread into Lead-In and Lead-Out : No
Fill up missing offset samples with silence : Yes
Delete leading and trailing silent blocks : No
Null samples used in CRC calculations : Yes
Used interface : Native Win32 interface for Win NT & 2000
Gap handling : Appended to previous track
Used output format : User Defined Encoder
Selected bitrate : 768 kBit/s
Quality : High
Add ID3 tag : No
Command line compressor : C:\Program Files (x86)\Exact Audio Copy\Flac\flac.exe
Additional command line options : -8 -V -T "ARTIST=%artist%" -T "TITLE=%title%" -T "ALBUM=%albumtitle%" -T "DATE=%year%" -T "TRACKNUMBER=%tracknr%" -T "GENRE=%genre%" -T "PERFORMER=%albuminterpret%" -T "COMPOSER=%composer%" %haslyrics%--tag-from-file=LYRICS="%lyricsfile%"%haslyrics% -T "ALBUMARTIST=%albumartist%" -T "DISCNUMBER=%cdnumber%" -T "TOTALDISCS=%totalcds%" -T "TOTALTRACKS=%numtracks%" -T "COMMENT=%comment%" %source% -o %dest%
TOC of the extracted CD
Track | Start | Length | Start sector | End sector
---------------------------------------------------------
1 | 0:00.00 | 5:22.42 | 0 | 24191
2 | 5:22.42 | 4:51.55 | 24192 | 46071
3 | 10:14.22 | 1:42.18 | 46072 | 53739
4 | 11:56.40 | 6:29.00 | 53740 | 82914
5 | 18:25.40 | 4:51.45 | 82915 | 104784
6 | 23:17.10 | 1:33.62 | 104785 | 111821
7 | 24:50.72 | 6:54.48 | 111822 | 142919
8 | 31:45.45 | 4:53.07 | 142920 | 164901
9 | 36:38.52 | 2:17.03 | 164902 | 175179
10 | 38:55.55 | 5:25.02 | 175180 | 199556
11 | 44:20.57 | 5:40.73 | 199557 | 225129
12 | 50:01.55 | 2:15.45 | 225130 | 235299
13 | 52:17.25 | 7:32.65 | 235300 | 269264
14 | 59:50.15 | 2:25.62 | 269265 | 280201
Track 1
Filename C:\EAC rips\01 - Hagia Sophia.wav
Pre-gap length 0:00:02.00
Peak level 95.9 %
Extraction speed 2.4 X
Track quality 100.0 %
Test CRC 0ED36D7E
Copy CRC 0ED36D7E
Accurately ripped (confidence 1) [A715A000] (AR v1)
Copy OK
Track 2
Filename C:\EAC rips\02 - The Four Questions.wav
Pre-gap length 0:00:03.50
Peak level 95.9 %
Extraction speed 2.6 X
Track quality 100.0 %
Test CRC 0ED36D9D
Copy CRC 0ED36D9D
Accurately ripped (confidence 1) [F0880BBF] (AR v1)
Copy OK
Track 3
Filename C:\EAC rips\03 - Canto I.wav
Pre-gap length 0:00:03.12
Peak level 68.0 %
Extraction speed 1.6 X
Track quality 99.8 %
Test CRC E35F79D6
Copy CRC E35F79D6
Accurately ripped (confidence 1) [BEB15C13] (AR v1)
Copy OK
Track 4
Filename C:\EAC rips\04 - Radbaz.wav
Pre-gap length 0:00:02.15
Peak level 94.8 %
Extraction speed 3.1 X
Track quality 100.0 %
Test CRC 7E6758A2
Copy CRC 7E6758A2
Accurately ripped (confidence 1) [015D16AB] (AR v1)
Copy OK
Track 5
Filename C:\EAC rips\05 - Eelpout.wav
Pre-gap length 0:00:02.60
Peak level 91.8 %
Extraction speed 3.3 X
Track quality 100.0 %
Test CRC F781E0EB
Copy CRC F781E0EB
Accurately ripped (confidence 1) [2C89BB67] (AR v1)
Copy OK
Track 6
Filename C:\EAC rips\06 - Canto II.wav
Pre-gap length 0:00:03.43
Peak level 95.9 %
Extraction speed 2.7 X
Track quality 100.0 %
Test CRC 055543AE
Copy CRC 055543AE
Accurately ripped (confidence 1) [340689B1] (AR v1)
Copy OK
Track 7
Filename C:\EAC rips\07 - Cluniac.wav
Pre-gap length 0:00:03.20
Peak level 95.9 %
Extraction speed 3.3 X
Track quality 99.9 %
Test CRC DAC46289
Copy CRC DAC46289
Accurately ripped (confidence 1) [6F682E1B] (AR v1)
Copy OK
Track 8
Filename C:\EAC rips\08 - Their Last End.wav
Pre-gap length 0:00:02.15
Peak level 79.7 %
Extraction speed 3.8 X
Track quality 100.0 %
Test CRC A5506553
Copy CRC A5506553
Accurately ripped (confidence 1) [96CAACFF] (AR v1)
Copy OK
Track 9
Filename C:\EAC rips\09 - Canto III.wav
Pre-gap length 0:00:03.22
Peak level 86.0 %
Extraction speed 3.4 X
Track quality 100.0 %
Test CRC 15CE3D25
Copy CRC 15CE3D25
Accurately ripped (confidence 1) [9885213E] (AR v1)
Copy OK
Track 10
Filename C:\EAC rips\10 - The Rocket Club.wav
Pre-gap length 0:00:02.33
Peak level 94.8 %
Extraction speed 3.4 X
Track quality 99.9 %
Test CRC D975D09B
Copy CRC D975D09B
Accurately ripped (confidence 1) [CDF97363] (AR v1)
Copy OK
Track 11
Filename C:\EAC rips\11 - Parachute.wav
Pre-gap length 0:00:03.00
Peak level 94.8 %
Extraction speed 3.3 X
Track quality 99.9 %
Test CRC 44E6F1F4
Copy CRC 44E6F1F4
Accurately ripped (confidence 1) [6953F4D5] (AR v1)
Copy OK
Track 12
Filename C:\EAC rips\12 - Canto IV.wav
Pre-gap length 0:00:02.60
Peak level 75.6 %
Extraction speed 3.8 X
Track quality 100.0 %
Test CRC 46607C46
Copy CRC 46607C46
Accurately ripped (confidence 1) [2337EC6B] (AR v1)
Copy OK
Track 13
Filename C:\EAC rips\13 - Darshon.wav
Pre-gap length 0:00:02.68
Peak level 95.9 %
Extraction speed 4.6 X
Track quality 100.0 %
Test CRC A81AEEC4
Copy CRC A81AEEC4
Accurately ripped (confidence 1) [26B92C7A] (AR v1)
Copy OK
Track 14
Filename C:\EAC rips\14 - Canto V.wav
Pre-gap length 0:00:02.73
Peak level 90.3 %
Extraction speed 3.9 X
Track quality 100.0 %
Test CRC 7B63E19E
Copy CRC 7B63E19E
Accurately ripped (confidence 1) [4097B7F0] (AR v1)
Copy OK
All tracks accurately ripped
No errors occurred
End of status report
---- CUETools DB Plugin V2.1.4
[CTDB TOCID: yy8uVyjwR7XYR_TU57H7boMscuo-] disk not present in database
Submit result: yy8uVyjwR7XYR_TU57H7boMscuo- has been uploaded
==== Log checksum B72BA36FA5444A94D2E639F705EDADEDF9C02571B7C17C37B15B34CF6BB9D967 ====
 
Содержание индексной карты (.CUE)
REM GENRE Jazz
REM DATE 1994
REM DISCID B40E980E
REM COMMENT "ExactAudioCopy v1.0b3"
PERFORMER "Andy Laster"
TITLE "Hydra"
FILE "01 - Hagia Sophia.wav" WAVE
TRACK 01 AUDIO
TITLE "Hagia Sophia"
PERFORMER "Andy Laster"
INDEX 01 00:00:00
TRACK 02 AUDIO
TITLE "The Four Questions"
PERFORMER "Andy Laster"
INDEX 00 05:18:67
FILE "02 - The Four Questions.wav" WAVE
INDEX 01 00:00:00
TRACK 03 AUDIO
TITLE "Canto I"
PERFORMER "Andy Laster"
INDEX 00 04:48:43
FILE "03 - Canto I.wav" WAVE
INDEX 01 00:00:00
TRACK 04 AUDIO
TITLE "Radbaz"
PERFORMER "Andy Laster"
INDEX 00 01:40:03
FILE "04 - Radbaz.wav" WAVE
INDEX 01 00:00:00
TRACK 05 AUDIO
TITLE "Eelpout"
PERFORMER "Andy Laster"
INDEX 00 06:26:15
FILE "05 - Eelpout.wav" WAVE
INDEX 01 00:00:00
TRACK 06 AUDIO
TITLE "Canto II"
PERFORMER "Andy Laster"
INDEX 00 04:48:02
FILE "06 - Canto II.wav" WAVE
INDEX 01 00:00:00
TRACK 07 AUDIO
TITLE "Cluniac"
PERFORMER "Andy Laster"
INDEX 00 01:30:42
FILE "07 - Cluniac.wav" WAVE
INDEX 01 00:00:00
TRACK 08 AUDIO
TITLE "Their Last End"
PERFORMER "Andy Laster"
INDEX 00 06:52:33
FILE "08 - Their Last End.wav" WAVE
INDEX 01 00:00:00
TRACK 09 AUDIO
TITLE "Canto III"
PERFORMER "Andy Laster"
INDEX 00 04:49:60
FILE "09 - Canto III.wav" WAVE
INDEX 01 00:00:00
TRACK 10 AUDIO
TITLE "The Rocket Club"
PERFORMER "Andy Laster"
INDEX 00 02:14:45
FILE "10 - The Rocket Club.wav" WAVE
INDEX 01 00:00:00
TRACK 11 AUDIO
TITLE "Parachute"
PERFORMER "Andy Laster"
INDEX 00 05:22:02
FILE "11 - Parachute.wav" WAVE
INDEX 01 00:00:00
TRACK 12 AUDIO
TITLE "Canto IV"
PERFORMER "Andy Laster"
INDEX 00 05:38:13
FILE "12 - Canto IV.wav" WAVE
INDEX 01 00:00:00
TRACK 13 AUDIO
TITLE "Darshon"
PERFORMER "Andy Laster"
INDEX 00 02:12:52
FILE "13 - Darshon.wav" WAVE
INDEX 01 00:00:00
TRACK 14 AUDIO
TITLE "Canto V"
PERFORMER "Andy Laster"
INDEX 00 07:29:67
FILE "14 - Canto V.wav" WAVE
INDEX 01 00:00:00
По всем вопросам пишите личное сообщение пользователю M0p94ok.
19:13
161
Нет комментариев. Ваш будет первым!