Вы используете незарегистрированную версию компонента "Вкладки"!

Поиск

(Free Improvisation) Scoolptures (Achille Succi, Nicola Negrini, Philippe Garcia, Antonio Della Marina) - White Sickness - 2011, FLAC (image+.cue), lossless

(Free Improvisation) Scoolptures (Achille Succi, Nicola Negrini, Philippe Garcia, Antonio Della Marina) - White Sickness - 2011, FLAC (image+.cue), lossless
Треклист:
Scoolptures / White Sickness
Жанр: Free Improvisation
Страна-производитель диска: UK
Год издания: 2011
Издатель (лейбл): Leo Records
Номер по каталогу: CD LR 606
Аудиокодек: FLAC (*.flac)
Тип рипа: image+.cue
Битрейт аудио: lossless
Продолжительность: 55:41
Источник (релизер): cd
Наличие сканов в содержимом раздачи: нет
Треклист:
1. Quindiciuno 7:52
2. Undicitre 3:01
3. Undicidue 2:50
4. Diecidue 8:10
5. Tretre 6:58
6. Tredicidue 1:43
7. Seidue 1:47
8. Quattrodue 6:36
9. Dodicidue 2:39
10. Quindicitre 14:01
 
Лог создания рипа
Exact Audio Copy V1.0 beta 2 from 29. April 2011
EAC extraction logfile from 17. October 2013, 12:55
Scoolptures / White Sickness
Used drive : Optiarc DVD RW AD-7170A Adapter: 0 ID: 0
Read mode : Secure
Utilize accurate stream : Yes
Defeat audio cache : Yes
Make use of C2 pointers : No
Read offset correction : 48
Overread into Lead-In and Lead-Out : No
Fill up missing offset samples with silence : Yes
Delete leading and trailing silent blocks : No
Null samples used in CRC calculations : Yes
Used interface : Native Win32 interface for Win NT & 2000
Used output format : User Defined Encoder
Selected bitrate : 320 kBit/s
Quality : High
Add ID3 tag : No
Command line compressor : C:\Program Files\Exact Audio Copy\Flac\flac.exe
Additional command line options : -V -8 -T "Date=%year%" -T "Genre=%genre%" %source%
TOC of the extracted CD
Track | Start | Length | Start sector | End sector
---------------------------------------------------------
1 | 0:00.00 | 7:52.53 | 0 | 35452
2 | 7:52.53 | 3:01.70 | 35453 | 49097
3 | 10:54.48 | 2:50.55 | 49098 | 61902
4 | 13:45.28 | 8:10.21 | 61903 | 98673
5 | 21:55.49 | 6:58.37 | 98674 | 130060
6 | 28:54.11 | 1:43.15 | 130061 | 137800
7 | 30:37.26 | 1:47.40 | 137801 | 145865
8 | 32:24.66 | 6:36.05 | 145866 | 175570
9 | 39:00.71 | 2:39.17 | 175571 | 187512
10 | 41:40.13 | 14:01.14 | 187513 | 250601
Range status and errors
Selected range
Filename K:\ЕАС\Scoolptures - White Sickness.wav
Peak level 98.1 %
Extraction speed 2.0 X
Range quality 100.0 %
Test CRC 110E9790
Copy CRC 110E9790
Copy OK
No errors occurred
AccurateRip summary
Track 1 accurately ripped (confidence 1) [8F61CA0D] (AR v2)
Track 2 accurately ripped (confidence 1) [DB45609E] (AR v2)
Track 3 accurately ripped (confidence 1) [5BFCFE4E] (AR v2)
Track 4 accurately ripped (confidence 1) [2D722225] (AR v2)
Track 5 accurately ripped (confidence 1) [AECB08F5] (AR v2)
Track 6 accurately ripped (confidence 1) [7140D06A] (AR v2)
Track 7 accurately ripped (confidence 1) [DE33857A] (AR v2)
Track 8 accurately ripped (confidence 1) [C0F2D057] (AR v2)
Track 9 accurately ripped (confidence 1) [A82ECDF8] (AR v2)
Track 10 accurately ripped (confidence 1) [EDF9B65D] (AR v2)
All tracks accurately ripped
End of status report
==== Log checksum 0B8DF0A5D4C89FA95BF546E246165A16B02DEA26E2EA0CBCAAFFF5C08D9E8200 ====
 
Содержание индексной карты (.CUE)
REM GENRE Jazz
REM DATE 2011
REM DISCID 8D0D0D0A
REM COMMENT "ExactAudioCopy v1.0b2"
PERFORMER "Scoolptures"
TITLE "White Sickness"
FILE "Scoolptures - White Sickness.flac" WAVE
TRACK 01 AUDIO
TITLE "Quindiciuno"
PERFORMER "Scoolptures"
ISRC 000000000000
INDEX 01 00:00:00
TRACK 02 AUDIO
TITLE "Undicitre"
PERFORMER "Scoolptures"
ISRC 000000000000
INDEX 01 07:52:53
TRACK 03 AUDIO
TITLE "Undicidue"
PERFORMER "Scoolptures"
ISRC 000000000000
INDEX 00 10:53:48
INDEX 01 10:54:48
TRACK 04 AUDIO
TITLE "Diecidue"
PERFORMER "Scoolptures"
ISRC 000000000000
INDEX 00 13:44:54
INDEX 01 13:45:28
TRACK 05 AUDIO
TITLE "Tretre"
PERFORMER "Scoolptures"
ISRC 000000000000
INDEX 01 21:55:49
TRACK 06 AUDIO
TITLE "Tredicidue"
PERFORMER "Scoolptures"
ISRC 000000000000
INDEX 01 28:54:11
TRACK 07 AUDIO
TITLE "Seidue"
PERFORMER "Scoolptures"
ISRC 000000000000
INDEX 00 30:36:64
INDEX 01 30:37:26
TRACK 08 AUDIO
TITLE "Quattrodue"
PERFORMER "Scoolptures"
ISRC 000000000000
INDEX 01 32:24:66
TRACK 09 AUDIO
TITLE "Dodicidue"
PERFORMER "Scoolptures"
ISRC 000000000000
INDEX 01 39:00:71
TRACK 10 AUDIO
TITLE "Quindicitre"
PERFORMER "Scoolptures"
ISRC 000000000000
INDEX 00 41:36:11
INDEX 01 41:40:13
 
Состав
Bass Clarinet, Alto Saxophone – Achille Succi
Double Bass, Electronics, Metallophone – Nicola Negrini
Drums – Philippe Garcia
Electronics – Antonio Della Marina
Any questions -> support@pro-jazz.com. По всем вопросам пишите -> support@pro-jazz.com
19:12
157
Нет комментариев. Ваш будет первым!