Вы используете незарегистрированную версию компонента "Вкладки"!

Поиск

(Free Jazz, Big Band, Nine Winds) Johnson County Landmark - Daydreams From The Prairie (JCL Plays The Compositions Of John Rapson) - 2001, FLAC (tracks+.cue), lossless

(Free Jazz, Big Band, Nine Winds) Johnson County Landmark - Daydreams From The Prairie (JCL Plays The Compositions Of John Rapson) - 2001, FLAC (tracks+.cue), lossless
Треклист:
Johnson County Landmark / Daydreams From The Prairie (JCL Plays The Compositions Of John Rapson)
Жанр: Free Jazz, Big Band, Nine Winds
Страна-производитель диска: US
Год издания: 2001
Издатель (лейбл): 9 Winds Records
Номер по каталогу: NWCD0235
Страна: US
Аудиокодек: FLAC (*.flac)
Тип рипа: tracks+.cue
Битрейт аудио: lossless
Продолжительность: 65:26
Источник (релизер): свой фирменный диск
Наличие сканов в содержимом раздачи:
Треклист:
1. Riff Bass Bridge Head 8:36
2. Virile 15:46
3. Paradox 9:18
4. Glide 6:30
5. Tulip Jive Dance 8:43
6. Book Of Ruth 6:04
7. Aba Kwa Drive 10:01
 
Лог создания рипа
Exact Audio Copy V1.0 beta 3 from 29. August 2011
EAC extraction logfile from 12. October 2013, 0:25
Johnson County Landmark / Daydreams From The Prairie
Used drive : PIONEER DVD-RW DVR-115D Adapter: 0 ID: 0
Read mode : Secure
Utilize accurate stream : Yes
Defeat audio cache : Yes
Make use of C2 pointers : No
Read offset correction : 48
Overread into Lead-In and Lead-Out : No
Fill up missing offset samples with silence : Yes
Delete leading and trailing silent blocks : No
Null samples used in CRC calculations : Yes
Used interface : Installed external ASPI interface
Gap handling : Appended to previous track
Used output format : User Defined Encoder
Selected bitrate : 896 kBit/s
Quality : High
Add ID3 tag : No
Command line compressor : C:\Program Files\Exact Audio Copy\FLAC\FLAC.EXE
Additional command line options : -6 -V -T "ARTIST=%artist%" -T "TITLE=%title%" -T "ALBUM=%albumtitle%" -T "DATE=%year%" -T "TRACKNUMBER=%tracknr%" -T "GENRE=%genre%" -T "COMMENT=%comment%" -T "BAND=%albuminterpret%" -T "COMPOSER=%composer%" %haslyrics%--tag-from-file=LYRICS="%lyricsfile%"%haslyrics% -T "DISCNUMBER=%cdnumber%" -T "TOTALDISCS=%totalcds%" -T "TOTALTRACKS=%numtracks%" %hascover%--picture="%coverfile%"%hascover% %source% -o %dest%
TOC of the extracted CD
Track | Start | Length | Start sector | End sector
---------------------------------------------------------
1 | 0:00.00 | 8:42.52 | 0 | 39201
2 | 8:42.52 | 15:50.63 | 39202 | 110514
3 | 24:33.40 | 9:22.57 | 110515 | 152721
4 | 33:56.22 | 6:34.40 | 152722 | 182311
5 | 40:30.62 | 8:47.38 | 182312 | 221874
6 | 49:18.25 | 6:09.17 | 221875 | 249566
7 | 55:27.42 | 9:59.20 | 249567 | 294511
Track 1
Filename D:\zzz\01 - Riff Bass Bridge Head.wav
Pre-gap length 0:00:02.00
Peak level 87.5 %
Extraction speed 4.9 X
Track quality 100.0 %
Test CRC 482110DC
Copy CRC 482110DC
Track not present in AccurateRip database
Copy OK
Track 2
Filename D:\zzz\02 - Virile.wav
Pre-gap length 0:00:05.60
Peak level 86.0 %
Extraction speed 6.1 X
Track quality 99.9 %
Test CRC 5EFA2FFD
Copy CRC 5EFA2FFD
Track not present in AccurateRip database
Copy OK
Track 3
Filename D:\zzz\03 - Paradox.wav
Pre-gap length 0:00:05.60
Peak level 91.0 %
Extraction speed 6.8 X
Track quality 99.9 %
Test CRC 592D554B
Copy CRC 592D554B
Track not present in AccurateRip database
Copy OK
Track 4
Filename D:\zzz\04 - Glide.wav
Pre-gap length 0:00:05.60
Peak level 83.1 %
Extraction speed 7.4 X
Track quality 100.0 %
Test CRC 1D00398A
Copy CRC 1D00398A
Track not present in AccurateRip database
Copy OK
Track 5
Filename D:\zzz\05 - Tulip Jive Dance.wav
Pre-gap length 0:00:05.60
Peak level 75.9 %
Extraction speed 7.6 X
Track quality 99.9 %
Test CRC 3956A38D
Copy CRC 3956A38D
Track not present in AccurateRip database
Copy OK
Track 6
Filename D:\zzz\06 - Book Of Ruth.wav
Pre-gap length 0:00:05.60
Peak level 61.7 %
Extraction speed 8.3 X
Track quality 100.0 %
Test CRC AF0412A7
Copy CRC AF0412A7
Track not present in AccurateRip database
Copy OK
Track 7
Filename D:\zzz\07 - Aba Kwa Drive.wav
Pre-gap length 0:00:05.60
Peak level 91.7 %
Extraction speed 8.5 X
Track quality 99.9 %
Test CRC C940B3EE
Copy CRC C940B3EE
Track not present in AccurateRip database
Copy OK
None of the tracks are present in the AccurateRip database
No errors occurred
End of status report
==== Log checksum 04C4157917CE8683EF51C80D44DAEFE7D9BE421F88310B28F8747744A9B1C05C ====
 
Содержание индексной карты (.CUE)
REM GENRE "Big Band"
REM DATE 2001
REM DISCID 580F5607
REM COMMENT "ExactAudioCopy v1.0b3"
PERFORMER "Johnson County Landmark"
TITLE "Daydreams From The Prairie"
FILE "01 - Riff Bass Bridge Head.wav" WAVE
TRACK 01 AUDIO
TITLE "Riff Bass Bridge Head"
PERFORMER "Johnson County Landmark"
INDEX 01 00:00:00
TRACK 02 AUDIO
TITLE "Virile"
PERFORMER "Johnson County Landmark"
INDEX 00 08:36:67
FILE "02 - Virile.wav" WAVE
INDEX 01 00:00:00
TRACK 03 AUDIO
TITLE "Paradox"
PERFORMER "Johnson County Landmark"
INDEX 00 15:45:03
FILE "03 - Paradox.wav" WAVE
INDEX 01 00:00:00
TRACK 04 AUDIO
TITLE "Glide"
PERFORMER "Johnson County Landmark"
INDEX 00 09:16:72
FILE "04 - Glide.wav" WAVE
INDEX 01 00:00:00
TRACK 05 AUDIO
TITLE "Tulip Jive Dance"
PERFORMER "Johnson County Landmark"
INDEX 00 06:28:55
FILE "05 - Tulip Jive Dance.wav" WAVE
INDEX 01 00:00:00
TRACK 06 AUDIO
TITLE "Book Of Ruth"
PERFORMER "Johnson County Landmark"
INDEX 00 08:41:53
FILE "06 - Book Of Ruth.wav" WAVE
INDEX 01 00:00:00
TRACK 07 AUDIO
TITLE "Aba Kwa Drive"
PERFORMER "Johnson County Landmark"
INDEX 00 06:03:32
FILE "07 - Aba Kwa Drive.wav" WAVE
INDEX 01 00:00:00
 
Лог проверки качества
d:\>d:\aucdtect -d/-m0 d:\zzz\*.wav
auCDtect: CD records authenticity detector, version 0.8.2
Copyright (c) 2004 Oleg Berngardt. All rights reserved.
Copyright (c) 2004 Alexander Djourik. All rights reserved.
------------------------------------------------------------
Processing file: [01. Riff Bass Bridge Head.wav]
------------------------------------------------------------
This track looks like CDDA with probability 99%
------------------------------------------------------------
Processing file: [02. Virile.wav]
------------------------------------------------------------
This track looks like CDDA with probability 99%
------------------------------------------------------------
Processing file: [03. Paradox.wav]
------------------------------------------------------------
This track looks like CDDA with probability 100%
------------------------------------------------------------
Processing file: [04. Glide.wav]
------------------------------------------------------------
This track looks like CDDA with probability 100%
------------------------------------------------------------
Processing file: [05. Tulip Jive Dance.wav]
------------------------------------------------------------
This track looks like CDDA with probability 100%
------------------------------------------------------------
Processing file: [06. Book Of Ruth.wav]
------------------------------------------------------------
This track looks like CDDA with probability 100%
------------------------------------------------------------
Processing file: [07. Aba Kwa Drive.wav]
------------------------------------------------------------
This track looks like CDDA with probability 99%
------------------------------------------------------------
Final Conclusion:
------------------------------------------------------------
These tracks looks like CDDA with probability 100%
 
Состав
Michael Giles: alto & soprano saxophones
Tim Owen: alto saxophone, flute, clarinet and bass clarinet
Luke Ziegenhorn: tenor and soprano saxophones
Dianna Hannah: tenor and soprano saxophones, flute and clarinet
Tim Gilbert: baritone saxophone
Adam Robertson, John Cord, Brian Umlah, Matt Hektoen, Mike Luken: trumpets
Alex Lunsqui: piano
Wes Phillips: bass
John Willmarth: drums
Matt Baucum, Aaron Rader, Pete Connell: trombones
Andrey Kharlamov: bass trombone
Jason Cook: guitar
Brad Pashcal: vibraphone/marimba
Andy Lynch, Drew Selim: percussion
Special guest Jim Dreier: congas
Recorded May 13-15, 2000 in Voxman Music Hall, The University Of Iowa
Mixed June 14-16, 28-29 at Recording Studio, The University Of Iowa
Engineer: Rod Hanze
По всем вопросам пишите личное сообщение пользователю M0p94ok.
19:16
202
Нет комментариев. Ваш будет первым!