Вы используете незарегистрированную версию компонента "Вкладки"!

Поиск

(Avant-Garde Jazz, Free Improvisation, Nine Winds) Mark Trayle & Vinny Golia - Music For Electronics & Woodwinds - 2002, FLAC (tracks+.cue), lossless

(Avant-Garde Jazz, Free Improvisation, Nine Winds) Mark Trayle & Vinny Golia - Music For Electronics & Woodwinds - 2002, FLAC (tracks+.cue), lossless
Треклист:
Mark Trayle & Vinny Golia / Music For Electronics & Woodwinds
Жанр: Avant-Garde Jazz, Free Improvisation, Nine Winds
Страна-производитель диска: US
Год издания: 2002
Издатель (лейбл): 9 Winds Records
Номер по каталогу: NWCD0243
Страна: US
Аудиокодек: FLAC (*.flac)
Тип рипа: tracks+.cue
Битрейт аудио: lossless
Продолжительность: 62:09
Источник (релизер): свой фирменный диск
Наличие сканов в содержимом раздачи:
Треклист:
1 Shelfish 7:50
2 This Clown Is Crashing 6:51
3 Cheapman And The Sweater He Cherished 6:03
4 If You Feed The Bears They Come Back For More 9:06
5 Imparticles 6:54
6 Signature Metric 5:11
7 Lazy Third Eye 8:15
8 Gilbert Was Vague 8:20
9 Behind The Fifty-Five Dollar Face 3:08
 
Лог создания рипа
Exact Audio Copy V1.0 beta 3 from 29. August 2011
EAC extraction logfile from 12. October 2013, 19:16
Mark Trayle & Vinny Golia / Music For Electronics & Woodwinds
Used drive : PIONEER DVD-RW DVR-115D Adapter: 0 ID: 0
Read mode : Secure
Utilize accurate stream : Yes
Defeat audio cache : Yes
Make use of C2 pointers : No
Read offset correction : 48
Overread into Lead-In and Lead-Out : No
Fill up missing offset samples with silence : Yes
Delete leading and trailing silent blocks : No
Null samples used in CRC calculations : Yes
Used interface : Installed external ASPI interface
Gap handling : Appended to previous track
Used output format : User Defined Encoder
Selected bitrate : 896 kBit/s
Quality : High
Add ID3 tag : No
Command line compressor : C:\Program Files\Exact Audio Copy\FLAC\FLAC.EXE
Additional command line options : -6 -V -T "ARTIST=%artist%" -T "TITLE=%title%" -T "ALBUM=%albumtitle%" -T "DATE=%year%" -T "TRACKNUMBER=%tracknr%" -T "GENRE=%genre%" -T "COMMENT=%comment%" -T "BAND=%albuminterpret%" -T "COMPOSER=%composer%" %haslyrics%--tag-from-file=LYRICS="%lyricsfile%"%haslyrics% -T "DISCNUMBER=%cdnumber%" -T "TOTALDISCS=%totalcds%" -T "TOTALTRACKS=%numtracks%" %hascover%--picture="%coverfile%"%hascover% %source% -o %dest%
TOC of the extracted CD
Track | Start | Length | Start sector | End sector
---------------------------------------------------------
1 | 0:01.00 | 7:53.14 | 75 | 35563
2 | 7:54.14 | 6:54.69 | 35564 | 66682
3 | 14:49.08 | 6:06.48 | 66683 | 94180
4 | 20:55.56 | 9:10.15 | 94181 | 135445
5 | 30:05.71 | 6:58.27 | 135446 | 166822
6 | 37:04.23 | 5:15.50 | 166823 | 190497
7 | 42:19.73 | 8:19.27 | 190498 | 227949
8 | 50:39.25 | 8:23.63 | 227950 | 265737
9 | 59:03.13 | 3:07.56 | 265738 | 279818
Track 1
Filename D:\zzz\01 - Shelfish.wav
Pre-gap length 0:00:03.00
Peak level 100.0 %
Extraction speed 4.8 X
Track quality 100.0 %
Test CRC 141B7D24
Copy CRC 141B7D24
Track not present in AccurateRip database
Copy OK
Track 2
Filename D:\zzz\02 - This Clown Is Crashing.wav
Pre-gap length 0:00:02.45
Peak level 57.1 %
Extraction speed 5.6 X
Track quality 100.0 %
Test CRC AA5637C3
Copy CRC AA5637C3
Track not present in AccurateRip database
Copy OK
Track 3
Filename D:\zzz\03 - Cheapman And The Sweater He Cherished.wav
Pre-gap length 0:00:03.45
Peak level 98.9 %
Extraction speed 6.1 X
Track quality 100.0 %
Test CRC C3D9B111
Copy CRC C3D9B111
Track not present in AccurateRip database
Copy OK
Track 4
Filename D:\zzz\04 - If You Feed The Bears They Come Back For More.wav
Pre-gap length 0:00:03.45
Peak level 100.0 %
Extraction speed 6.9 X
Track quality 100.0 %
Test CRC 192B51D4
Copy CRC 192B51D4
Track not present in AccurateRip database
Copy OK
Track 5
Filename D:\zzz\05 - Imparticle.wav
Pre-gap length 0:00:03.45
Peak level 100.0 %
Extraction speed 7.3 X
Track quality 100.0 %
Test CRC D1F52EC4
Copy CRC D1F52EC4
Track not present in AccurateRip database
Copy OK
Track 6
Filename D:\zzz\06 - Signature Metric.wav
Pre-gap length 0:00:03.45
Peak level 98.6 %
Extraction speed 7.4 X
Track quality 100.0 %
Test CRC 29CDA8B2
Copy CRC 29CDA8B2
Track not present in AccurateRip database
Copy OK
Track 7
Filename D:\zzz\07 - Lazy Third Eye.wav
Pre-gap length 0:00:04.45
Peak level 81.8 %
Extraction speed 8.1 X
Track quality 100.0 %
Test CRC 07552AF8
Copy CRC 07552AF8
Track not present in AccurateRip database
Copy OK
Track 8
Filename D:\zzz\08 - Gilbert Was Vague.wav
Pre-gap length 0:00:03.45
Peak level 61.4 %
Extraction speed 8.6 X
Track quality 100.0 %
Test CRC 82337F36
Copy CRC 82337F36
Track not present in AccurateRip database
Copy OK
Track 9
Filename D:\zzz\09 - Behind The Fifty-Five Dollar Face.wav
Pre-gap length 0:00:03.45
Peak level 100.0 %
Extraction speed 8.0 X
Track quality 100.0 %
Test CRC A980154B
Copy CRC A980154B
Track not present in AccurateRip database
Copy OK
None of the tracks are present in the AccurateRip database
No errors occurred
End of status report
==== Log checksum 3853EA0E80F70617BC8ED916C8FA775FF3322FA73A7650F275AC8D487691858E ====
 
Содержание индексной карты (.CUE)
REM GENRE "Free Improvisation"
REM DATE 2001
REM DISCID 760E9109
REM COMMENT "ExactAudioCopy v1.0b3"
PERFORMER "Mark Trayle & Vinny Golia"
TITLE "Music For Electronics & Woodwinds"
FILE "01 - Shelfish.wav" WAVE
TRACK 01 AUDIO
TITLE "Shelfish"
PERFORMER "Mark Trayle & Vinny Golia"
PREGAP 00:01:00
INDEX 01 00:00:00
TRACK 02 AUDIO
TITLE "This Clown Is Crashing"
PERFORMER "Mark Trayle & Vinny Golia"
INDEX 00 07:50:44
FILE "02 - This Clown Is Crashing.wav" WAVE
INDEX 01 00:00:00
TRACK 03 AUDIO
TITLE "Cheapman And The Sweater He Cherished"
PERFORMER "Mark Trayle & Vinny Golia"
INDEX 00 06:51:24
FILE "03 - Cheapman And The Sweater He Cherished.wav" WAVE
INDEX 01 00:00:00
TRACK 04 AUDIO
TITLE "If You Feed The Bears They Come Back For More"
PERFORMER "Mark Trayle & Vinny Golia"
INDEX 00 06:03:03
FILE "04 - If You Feed The Bears They Come Back For More.wav" WAVE
INDEX 01 00:00:00
TRACK 05 AUDIO
TITLE "Imparticle"
PERFORMER "Mark Trayle & Vinny Golia"
INDEX 00 09:06:45
FILE "05 - Imparticle.wav" WAVE
INDEX 01 00:00:00
TRACK 06 AUDIO
TITLE "Signature Metric"
PERFORMER "Mark Trayle & Vinny Golia"
INDEX 00 06:54:57
FILE "06 - Signature Metric.wav" WAVE
INDEX 01 00:00:00
TRACK 07 AUDIO
TITLE "Lazy Third Eye"
PERFORMER "Mark Trayle & Vinny Golia"
INDEX 00 05:11:05
FILE "07 - Lazy Third Eye.wav" WAVE
INDEX 01 00:00:00
TRACK 08 AUDIO
TITLE "Gilbert Was Vague"
PERFORMER "Mark Trayle & Vinny Golia"
INDEX 00 08:15:57
FILE "08 - Gilbert Was Vague.wav" WAVE
INDEX 01 00:00:00
TRACK 09 AUDIO
TITLE "Behind The Fifty-Five Dollar Face"
PERFORMER "Mark Trayle & Vinny Golia"
INDEX 00 08:20:18
FILE "09 - Behind The Fifty-Five Dollar Face.wav" WAVE
INDEX 01 00:00:00
 
Лог проверки качества
d:\>d:\aucdtect -d/-m0 d:\zzz\*.wav
auCDtect: CD records authenticity detector, version 0.8.2
Copyright (c) 2004 Oleg Berngardt. All rights reserved.
Copyright (c) 2004 Alexander Djourik. All rights reserved.
------------------------------------------------------------
Processing file: [01. Shelfish.wav]
------------------------------------------------------------
This track looks like CDDA with probability 99%
------------------------------------------------------------
Processing file: [02. This Clown Is Crashing.wav]
------------------------------------------------------------
This track looks like CDDA with probability 100%
------------------------------------------------------------
Processing file: [03. Cheapman And The Sweater He Cherished.wav]
------------------------------------------------------------
This track looks like CDDA with probability 100%
------------------------------------------------------------
Processing file: [04. If You Feed The Bears They Come Back For More.wav]
------------------------------------------------------------
This track looks like CDDA with probability 100%
------------------------------------------------------------
Processing file: [05. Imparticle.wav]
------------------------------------------------------------
This track looks like CDDA with probability 99%
------------------------------------------------------------
Processing file: [06. Signature Metric.wav]
------------------------------------------------------------
This track looks like CDDA with probability 54%
------------------------------------------------------------
Processing file: [07. Lazy Third Eye.wav]
------------------------------------------------------------
This track looks like CDDA with probability 100%
------------------------------------------------------------
Processing file: [08. Gilbert Was Vague.wav]
------------------------------------------------------------
This track looks like CDDA with probability 100%
------------------------------------------------------------
Processing file: [09. Behind The Fifty-Five Dollar Face.wav]
------------------------------------------------------------
This track looks like CDDA with probability 100%
------------------------------------------------------------
Final Conclusion:
------------------------------------------------------------
These tracks looks like CDDA with probability 100%
Доп. информация:
 
AMG Review
Few musicians have continuously and consistently performed with the creative spark that marks the performances of Vinny Golia. For years -- even decades -- he has quietly produced a body of work that rivals the discographies of the most accomplished and innovative freestyle improvisers, including Anthony Braxton. From presenting solo recitals on a plethora of reeds, to leading small groups, to composing for his big bands, Golia seems never to stop thinking of new ways to water his fertile imagination. Here, he performs duets with electronics whiz Mark Trayle, and the fascinating results offer a different side of Golia. While the saxophonist performs on a variety of reeds (big and small), Trayle lets his computer generate random sounds or respond directly to the horns. While this technique has been used by others, including trombonist George Lewis, the unique combination of saxes and flute gives this one a special flavor. Of course, Golia's unusual technique and improvisational flair are critical to the album's success, as are the weird and wily electronic manipulations of Trayle. While there are no melodies, there are remarkable constructs created, ones that bridge the gap between classical music, jazz, and free improvisation. In fact, one of the attractive elements of the recording is the trans-genre associations. As with anything this speculative, some pieces work better than others, as the computer glorifies in sound manipulations that vary from piece to piece. If not always inspiring, the overall effect is at least compelling and sometimes thrilling -- and in an era of pop conformity, that says a lot.
 
Состав
Electronics – Mark Trayle
Mastered By – Wayne Peet
Reeds [Woodwinds] – Vinny Golia
Recorded at California Institute for the Arts. Mastered Feb. 2001 at Newzone Studio, Los Angeles, CA.
По всем вопросам пишите личное сообщение пользователю M0p94ok.
19:17
218
Нет комментариев. Ваш будет первым!