Вы используете незарегистрированную версию компонента "Вкладки"!

Поиск

(Free Jazz, Soul Note) Tom Varner Quartet (w/ Ed Jackson, Billy Hart, Fred Hopkins) - Tom Varner Quartet - 1981, FLAC (tracks+.cue), lossless

(Free Jazz, Soul Note) Tom Varner Quartet (w/ Ed Jackson, Billy Hart, Fred Hopkins) - Tom Varner Quartet - 1981, FLAC (tracks+.cue), lossless
Издатель (лейбл):
Треклист:
Tom Varner Quartet / Tom Varner Quartet
Жанр: Free Jazz, Soul Note
Страна-производитель диска: Italy
Год издания: 1981
Издатель (лейбл): Soul Note
Номер по каталогу: 121017-2
Страна: US
Аудиокодек: FLAC (*.flac)
Тип рипа: tracks+.cue
Битрейт аудио: lossless
Продолжительность: 44:43
Источник (релизер): свой фирменный диск
Наличие сканов в содержимом раздачи:
Треклист:
1 The Otter 7:37
2 Radiator 8:18
3 12 12 7:32
4 TV TV 10:05
5 Heaps 10:28
 
Лог создания рипа
Exact Audio Copy V1.0 beta 3 from 29. August 2011
EAC extraction logfile from 13. October 2013, 13:10
Tom Varner Quartet / Tom Varner Quartet
Used drive : PIONEER DVD-RW DVR-115D Adapter: 0 ID: 0
Read mode : Secure
Utilize accurate stream : Yes
Defeat audio cache : Yes
Make use of C2 pointers : No
Read offset correction : 48
Overread into Lead-In and Lead-Out : No
Fill up missing offset samples with silence : Yes
Delete leading and trailing silent blocks : No
Null samples used in CRC calculations : Yes
Used interface : Installed external ASPI interface
Gap handling : Appended to previous track
Used output format : User Defined Encoder
Selected bitrate : 896 kBit/s
Quality : High
Add ID3 tag : No
Command line compressor : C:\Program Files\Exact Audio Copy\FLAC\FLAC.EXE
Additional command line options : -6 -V -T "ARTIST=%artist%" -T "TITLE=%title%" -T "ALBUM=%albumtitle%" -T "DATE=%year%" -T "TRACKNUMBER=%tracknr%" -T "GENRE=%genre%" -T "COMMENT=%comment%" -T "BAND=%albuminterpret%" -T "COMPOSER=%composer%" %haslyrics%--tag-from-file=LYRICS="%lyricsfile%"%haslyrics% -T "DISCNUMBER=%cdnumber%" -T "TOTALDISCS=%totalcds%" -T "TOTALTRACKS=%numtracks%" %hascover%--picture="%coverfile%"%hascover% %source% -o %dest%
TOC of the extracted CD
Track | Start | Length | Start sector | End sector
---------------------------------------------------------
1 | 0:00.32 | 7:43.18 | 32 | 34774
2 | 7:43.50 | 8:26.50 | 34775 | 72774
3 | 16:10.25 | 7:39.50 | 72775 | 107249
4 | 23:50.00 | 10:14.00 | 107250 | 153299
5 | 34:04.00 | 10:40.00 | 153300 | 201299
Track 1
Filename D:\zzz\01 - The Otter.wav
Pre-gap length 0:00:02.32
Peak level 99.1 %
Extraction speed 4.8 X
Track quality 100.0 %
Test CRC D02AF522
Copy CRC D02AF522
Accurately ripped (confidence 2) [603D4DED] (AR v1)
Copy OK
Track 2
Filename D:\zzz\02 - Radiator.wav
Peak level 81.8 %
Extraction speed 5.6 X
Track quality 100.0 %
Test CRC EC24F088
Copy CRC EC24F088
Accurately ripped (confidence 2) [319B8BD6] (AR v1)
Copy OK
Track 3
Filename D:\zzz\03 - 12 12.wav
Peak level 91.3 %
Extraction speed 6.3 X
Track quality 100.0 %
Test CRC 50065ED6
Copy CRC 50065ED6
Accurately ripped (confidence 2) [ED5D31BD] (AR v1)
Copy OK
Track 4
Filename D:\zzz\04 - TV TV.wav
Peak level 70.6 %
Extraction speed 7.1 X
Track quality 100.0 %
Test CRC 164DC8F4
Copy CRC 164DC8F4
Accurately ripped (confidence 2) [47715DEC] (AR v1)
Copy OK
Track 5
Filename D:\zzz\05 - Heaps.wav
Peak level 77.2 %
Extraction speed 7.8 X
Track quality 100.0 %
Test CRC 9598B8E9
Copy CRC 9598B8E9
Accurately ripped (confidence 2) [CDCE5BEF] (AR v1)
Copy OK
All tracks accurately ripped
No errors occurred
End of status report
==== Log checksum C1499E504C3DF8A1E3FBC1B04F82E1A9D3CE592DFDB493DB2667A4629D81DCED ====
 
Содержание индексной карты (.CUE)
REM GENRE "Free Jazz"
REM DATE 1981
REM DISCID 390A7C05
REM COMMENT "ExactAudioCopy v1.0b3"
PERFORMER "Tom Varner Quartet"
TITLE "Tom Varner Quartet"
FILE "01 - The Otter.wav" WAVE
TRACK 01 AUDIO
TITLE "The Otter"
PERFORMER "Tom Varner Quartet"
PREGAP 00:00:32
INDEX 01 00:00:00
FILE "02 - Radiator.wav" WAVE
TRACK 02 AUDIO
TITLE "Radiator"
PERFORMER "Tom Varner Quartet"
INDEX 01 00:00:00
FILE "03 - 12 12.wav" WAVE
TRACK 03 AUDIO
TITLE "12 12"
PERFORMER "Tom Varner Quartet"
INDEX 01 00:00:00
FILE "04 - TV TV.wav" WAVE
TRACK 04 AUDIO
TITLE "TV TV"
PERFORMER "Tom Varner Quartet"
INDEX 01 00:00:00
FILE "05 - Heaps.wav" WAVE
TRACK 05 AUDIO
TITLE "Heaps"
PERFORMER "Tom Varner Quartet"
INDEX 01 00:00:00
 
Лог проверки качества
d:\>d:\aucdtect -d/-m0 d:\zzz\*.wav
auCDtect: CD records authenticity detector, version 0.8.2
Copyright (c) 2004 Oleg Berngardt. All rights reserved.
Copyright (c) 2004 Alexander Djourik. All rights reserved.
------------------------------------------------------------
Processing file: [01. The Otter.wav]
------------------------------------------------------------
This track looks like CDDA with probability 100%
------------------------------------------------------------
Processing file: [02. Radiator.wav]
------------------------------------------------------------
This track looks like CDDA with probability 99%
------------------------------------------------------------
Processing file: [03. 12 12.wav]
------------------------------------------------------------
This track looks like CDDA with probability 100%
------------------------------------------------------------
Processing file: [04. TV TV.wav]
------------------------------------------------------------
This track looks like CDDA with probability 100%
------------------------------------------------------------
Processing file: [05. Heaps.wav]
------------------------------------------------------------
This track looks like CDDA with probability 100%
------------------------------------------------------------
Final Conclusion:
------------------------------------------------------------
These tracks looks like CDDA with probability 100%
Доп. информация:
 
AMG Review
Tom Varner turned heads and opened eyes on the jazz scene in the early '80s. There weren't, and still aren't, many French horn players who improvise and play with the facility he demonstrated on this 1980 session. There were five tracks, two of them over 10 minutes, and Varner displayed impressive speed and fire, playing with distinction while matching alto saxophonist Ed Jackson in range, control through every register, phrasing, and tonal quality.
 
Состав
Alto Saxophone – Ed Jackson
Bass – Fred Hopkins
Drums – Billy Hart
French Horn – Tom Varner
Recorded August 29, 1980, mixed September 20, 1980 at Sorcerer Sound N.Y.C.
Any questions - support@pro-jazz.com. Есть вопросы - support@pro-jazz.com
19:17
373
Нет комментариев. Ваш будет первым!