Вы используете незарегистрированную версию компонента "Вкладки"!

Поиск

(Free Jazz, Soul Note) Tom Varner Quartet (w/ Billy Hart, Ed Schuller, Adam Nussbaum) - Motion / Stillness - 1983, FLAC (tracks+.cue), lossless

(Free Jazz, Soul Note) Tom Varner Quartet (w/ Billy Hart, Ed Schuller, Adam Nussbaum) - Motion / Stillness - 1983, FLAC (tracks+.cue), lossless
Издатель (лейбл):
Треклист:
Tom Varner Quartet (w/ Billy Hart, Ed Schuller, Adam Nussbaum) / Motion / Stillness
Жанр: Free Jazz, Soul Note
Страна-производитель диска: Italy
Год издания: 1983
Издатель (лейбл): Soul Note
Номер по каталогу: 121067-2
Страна: US
Аудиокодек: FLAC (*.flac)
Тип рипа: tracks+.cue
Битрейт аудио: lossless
Продолжительность: 71:37
Источник (релизер): свой фирменный диск
Наличие сканов в содержимом раздачи:
Треклист:
1 Subway Awakening 11:22
2 Study #1 10:03
3 Neutron Bomb Shuffle 4:59
4 New Moonshiner 13:46
5 Freddy Did It 3:26
BONUS TRACKS
6 Indian Summer 9:37
7 The Otter 10:26
8 Comme Il Faut 7:55
 
Лог создания рипа
Exact Audio Copy V1.0 beta 3 from 29. August 2011
EAC extraction logfile from 13. October 2013, 22:01
Tom Varner Quartet / Motion / Stillness
Used drive : PIONEER DVD-RW DVR-115D Adapter: 0 ID: 0
Read mode : Secure
Utilize accurate stream : Yes
Defeat audio cache : Yes
Make use of C2 pointers : No
Read offset correction : 48
Overread into Lead-In and Lead-Out : No
Fill up missing offset samples with silence : Yes
Delete leading and trailing silent blocks : No
Null samples used in CRC calculations : Yes
Used interface : Installed external ASPI interface
Gap handling : Appended to previous track
Used output format : User Defined Encoder
Selected bitrate : 896 kBit/s
Quality : High
Add ID3 tag : No
Command line compressor : C:\Program Files\Exact Audio Copy\FLAC\FLAC.EXE
Additional command line options : -6 -V -T "ARTIST=%artist%" -T "TITLE=%title%" -T "ALBUM=%albumtitle%" -T "DATE=%year%" -T "TRACKNUMBER=%tracknr%" -T "GENRE=%genre%" -T "COMMENT=%comment%" -T "BAND=%albuminterpret%" -T "COMPOSER=%composer%" %haslyrics%--tag-from-file=LYRICS="%lyricsfile%"%haslyrics% -T "DISCNUMBER=%cdnumber%" -T "TOTALDISCS=%totalcds%" -T "TOTALTRACKS=%numtracks%" %hascover%--picture="%coverfile%"%hascover% %source% -o %dest%
TOC of the extracted CD
Track | Start | Length | Start sector | End sector
---------------------------------------------------------
1 | 0:00.00 | 11:22.40 | 0 | 51189
2 | 11:22.40 | 10:03.35 | 51190 | 96449
3 | 21:26.00 | 4:59.57 | 96450 | 118931
4 | 26:25.57 | 13:46.13 | 118932 | 180894
5 | 40:11.70 | 3:26.20 | 180895 | 196364
6 | 43:38.15 | 9:37.27 | 196365 | 239666
7 | 53:15.42 | 10:26.28 | 239667 | 286644
8 | 63:41.70 | 7:55.57 | 286645 | 322326
Track 1
Filename D:\zzz\01 - Subway Awakening.wav
Pre-gap length 0:00:02.00
Peak level 93.3 %
Extraction speed 5.6 X
Track quality 100.0 %
Test CRC D06C8E99
Copy CRC D06C8E99
Accurately ripped (confidence 1) [5EFD18C9] (AR v1)
Copy OK
Track 2
Filename D:\zzz\02 - Study #1.wav
Peak level 90.0 %
Extraction speed 6.6 X
Track quality 100.0 %
Test CRC AA921618
Copy CRC AA921618
Accurately ripped (confidence 1) [8782BBF9] (AR v1)
Copy OK
Track 3
Filename D:\zzz\03 - Neutron Bomb Shuffle.wav
Peak level 96.6 %
Extraction speed 6.2 X
Track quality 99.9 %
Test CRC D33F5E1E
Copy CRC D33F5E1E
Accurately ripped (confidence 1) [CB77C400] (AR v1)
Copy OK
Track 4
Filename D:\zzz\04 - New Moonshiner.wav
Peak level 90.2 %
Extraction speed 8.0 X
Track quality 100.0 %
Test CRC 582B5F13
Copy CRC 582B5F13
Accurately ripped (confidence 1) [AF1AA95C] (AR v1)
Copy OK
Track 5
Filename D:\zzz\05 - Freddy Did It.wav
Peak level 92.6 %
Extraction speed 7.5 X
Track quality 100.0 %
Test CRC 69695136
Copy CRC 69695136
Accurately ripped (confidence 1) [5B0850E9] (AR v1)
Copy OK
Track 6
Filename D:\zzz\06 - Indian Summer.wav
Peak level 91.9 %
Extraction speed 8.3 X
Track quality 99.9 %
Test CRC 01592670
Copy CRC 01592670
Accurately ripped (confidence 1) [2E82D5BA] (AR v1)
Copy OK
Track 7
Filename D:\zzz\07 - The Otter.wav
Peak level 67.2 %
Extraction speed 9.4 X
Track quality 100.0 %
Test CRC 877DDA38
Copy CRC 877DDA38
Accurately ripped (confidence 1) [25299F29] (AR v1)
Copy OK
Track 8
Filename D:\zzz\08 - Comme Il Faut.wav
Peak level 74.6 %
Extraction speed 9.0 X
Track quality 99.9 %
Test CRC 0C3F65D7
Copy CRC 0C3F65D7
Accurately ripped (confidence 1) [E2A73729] (AR v1)
Copy OK
All tracks accurately ripped
No errors occurred
End of status report
==== Log checksum 53482CCD4A86BF28FD5667FBB2230093A651A5704B8BCDB890A70CB00D17C068 ====
 
Содержание индексной карты (.CUE)
REM GENRE "Free Jazz"
REM DATE 1983
REM DISCID 7410C908
REM COMMENT "ExactAudioCopy v1.0b3"
PERFORMER "Tom Varner Quartet"
TITLE "Motion / Stillness"
FILE "01 - Subway Awakening.wav" WAVE
TRACK 01 AUDIO
TITLE "Subway Awakening"
PERFORMER "Tom Varner Quartet"
INDEX 01 00:00:00
FILE "02 - Study #1.wav" WAVE
TRACK 02 AUDIO
TITLE "Study #1"
PERFORMER "Tom Varner Quartet"
INDEX 01 00:00:00
FILE "03 - Neutron Bomb Shuffle.wav" WAVE
TRACK 03 AUDIO
TITLE "Neutron Bomb Shuffle"
PERFORMER "Tom Varner Quartet"
INDEX 01 00:00:00
FILE "04 - New Moonshiner.wav" WAVE
TRACK 04 AUDIO
TITLE "New Moonshiner"
PERFORMER "Tom Varner Quartet"
INDEX 01 00:00:00
FILE "05 - Freddy Did It.wav" WAVE
TRACK 05 AUDIO
TITLE "Freddy Did It"
PERFORMER "Tom Varner Quartet"
INDEX 01 00:00:00
FILE "06 - Indian Summer.wav" WAVE
TRACK 06 AUDIO
TITLE "Indian Summer"
PERFORMER "Tom Varner Quartet"
INDEX 01 00:00:00
FILE "07 - The Otter.wav" WAVE
TRACK 07 AUDIO
TITLE "The Otter"
PERFORMER "Tom Varner Quartet"
INDEX 01 00:00:00
FILE "08 - Comme Il Faut.wav" WAVE
TRACK 08 AUDIO
TITLE "Comme Il Faut"
PERFORMER "Tom Varner Quartet"
INDEX 01 00:00:00
 
Лог проверки качества
d:\>d:\aucdtect -d/-m0 d:\zzz\*.wav
auCDtect: CD records authenticity detector, version 0.8.2
Copyright (c) 2004 Oleg Berngardt. All rights reserved.
Copyright (c) 2004 Alexander Djourik. All rights reserved.
------------------------------------------------------------
Processing file: [01. Subway Awakening.wav]
------------------------------------------------------------
This track looks like CDDA with probability 100%
------------------------------------------------------------
Processing file: [02. Study #1.wav]
------------------------------------------------------------
This track looks like CDDA with probability 100%
------------------------------------------------------------
Processing file: [03. Neutron Bomb Shuffle.wav]
------------------------------------------------------------
This track looks like CDDA with probability 100%
------------------------------------------------------------
Processing file: [04. New Moonshiner.wav]
------------------------------------------------------------
This track looks like CDDA with probability 100%
------------------------------------------------------------
Processing file: [05. Freddy Did It.wav]
------------------------------------------------------------
This track looks like CDDA with probability 99%
------------------------------------------------------------
Processing file: [06. Indian Summer.wav]
------------------------------------------------------------
This track looks like CDDA with probability 100%
------------------------------------------------------------
Processing file: [07. The Otter.wav]
------------------------------------------------------------
This track looks like CDDA with probability 100%
------------------------------------------------------------
Processing file: [08. Comme Il Faut.wav]
------------------------------------------------------------
This track looks like CDDA with probability 100%
------------------------------------------------------------
Final Conclusion:
------------------------------------------------------------
These tracks looks like CDDA with probability 100%
Доп. информация:
 
AMG Review
Tom Varner has turned the French horn into an instrument not relegated exclusively to providing background color or occasional solos in strictly orchestral or large jazz ensemble settings. This 1982 concert features Varner leading an explosive quartet with alto saxophonist Ed Jackson, bassist Ed Schuller, and drummer Billy Hart through his demanding originals. The performances are full of lively experimentation by the musicians, with Varner often suggesting a trombone on his instrument with his rapid-fire technique. His amusing "Neutron Bomb Shuffle" is described by its composer to liner note writer Nat Hentoff as "the skeletons and cockroaches dancing in a chorus line after the bomb hits." The last three tracks, added to the CD reissue of this disc, feature Adam Nussbaum taking Hart's place on drums, though these songs also come from the same 1982 concert. Highly recommended!
 
Состав
Alto Saxophone – Ed Jackson
Bass – Ed Schuller
Drums – Adam Nussbaum (tracks: 6 to 8), Billy Hart (tracks: 1 to 5)
French Horn – Tom Varner
Any questions - support@pro-jazz.com. Есть вопросы - support@pro-jazz.com
19:18
391
Нет комментариев. Ваш будет первым!