Вы используете незарегистрированную версию компонента "Вкладки"!

Поиск

(Avant-Garde, Contemporary Jazz) Henry Threadgill & Make a Move - Where's Your Cup? - 1997, FLAC (tracks+.cue), lossless

(Avant-Garde, Contemporary Jazz) Henry Threadgill & Make a Move - Where's Your Cup? - 1997, FLAC (tracks+.cue), lossless
Треклист:
Henry Threadgill & Make a Move / Where's Your Cup?
Жанр: Avant-Garde, Contemporary Jazz
Страна-производитель диска: U.S.A.
Год издания: 1997
Издатель (лейбл): Columbia
Номер по каталогу: 485139 2
Аудиокодек: FLAC (*.flac)
Тип рипа: tracks+.cue
Битрейт аудио: lossless
Продолжительность: 1:06:20
Источник (релизер): я
Наличие сканов в содержимом раздачи: да
Треклист:
1. 100 Year Old Game 10:56
2. Laughing Club 5:01
3. Where’s Your Cup? 11:15
4. And This 13:41
5. Feels Like It 6:40
6. The Flew 9:51
7. Go to Far 8:56
All compositions by Henry Threadgill.
Recorded at East Side Sound, New York.
Henry Threadgill – Alto Saxophone, Flute
Brandon Ross – Electric and Classical Guitar
Tony Cedras – Accordion and Harmonium
Stomu Takeishi – 5-String Fretless Bass
J. T. Lewis – Drums
 
Лог создания рипа
Exact Audio Copy V1.0 beta 3 from 29. August 2011
EAC extraction logfile from 19. October 2013, 11:45
Henry Threadgill & Make a Move / Where's Your Cup?
Used drive : SlimtypeeNAU508 5 Adapter: 1 ID: 0
Read mode : Secure
Utilize accurate stream : Yes
Defeat audio cache : Yes
Make use of C2 pointers : No
Read offset correction : 6
Overread into Lead-In and Lead-Out : No
Fill up missing offset samples with silence : Yes
Delete leading and trailing silent blocks : No
Null samples used in CRC calculations : Yes
Used interface : Native Win32 interface for Win NT & 2000
Gap handling : Appended to previous track
Used output format : User Defined Encoder
Selected bitrate : 768 kBit/s
Quality : High
Add ID3 tag : No
Command line compressor : C:\Program Files (x86)\Exact Audio Copy\Flac\flac.exe
Additional command line options : -8 -V -T "ARTIST=%artist%" -T "TITLE=%title%" -T "ALBUM=%albumtitle%" -T "DATE=%year%" -T "TRACKNUMBER=%tracknr%" -T "GENRE=%genre%" -T "PERFORMER=%albuminterpret%" -T "COMPOSER=%composer%" %haslyrics%--tag-from-file=LYRICS="%lyricsfile%"%haslyrics% -T "ALBUMARTIST=%albumartist%" -T "DISCNUMBER=%cdnumber%" -T "TOTALDISCS=%totalcds%" -T "TOTALTRACKS=%numtracks%" -T "COMMENT=%comment%" %source% -o %dest%
TOC of the extracted CD
Track | Start | Length | Start sector | End sector
---------------------------------------------------------
1 | 0:00.00 | 10:55.50 | 0 | 49174
2 | 10:55.50 | 5:01.00 | 49175 | 71749
3 | 15:56.50 | 11:14.42 | 71750 | 122341
4 | 27:11.17 | 13:41.08 | 122342 | 183924
5 | 40:52.25 | 6:40.35 | 183925 | 213959
6 | 47:32.60 | 9:51.37 | 213960 | 258321
7 | 57:24.22 | 8:55.68 | 258322 | 298514
Track 1
Filename C:\EAC rips\01 - 100 Year Old Game.wav
Pre-gap length 0:00:02.00
Peak level 100.0 %
Extraction speed 2.4 X
Track quality 99.9 %
Test CRC 81FDFAA5
Copy CRC 81FDFAA5
Accurately ripped (confidence 2) [D8C3D60C] (AR v2)
Copy OK
Track 2
Filename C:\EAC rips\02 - Laughing Club.wav
Peak level 100.0 %
Extraction speed 2.1 X
Track quality 100.0 %
Test CRC 1816C974
Copy CRC 1816C974
Accurately ripped (confidence 2) [FF90DF93] (AR v2)
Copy OK
Track 3
Filename C:\EAC rips\03 - Where's Your Cup_.wav
Pre-gap length 0:00:01.23
Peak level 100.0 %
Extraction speed 3.4 X
Track quality 100.0 %
Test CRC 331C1BD4
Copy CRC 331C1BD4
Accurately ripped (confidence 2) [492EA04B] (AR v2)
Copy OK
Track 4
Filename C:\EAC rips\04 - And This.wav
Peak level 100.0 %
Extraction speed 4.1 X
Track quality 100.0 %
Test CRC 93091E16
Copy CRC 93091E16
Accurately ripped (confidence 2) [921A7DB4] (AR v2)
Copy OK
Track 5
Filename C:\EAC rips\05 - Feels Like It.wav
Pre-gap length 0:00:01.18
Peak level 100.0 %
Extraction speed 4.1 X
Track quality 100.0 %
Test CRC 707F3BEC
Copy CRC 707F3BEC
Accurately ripped (confidence 2) [194ACD75] (AR v2)
Copy OK
Track 6
Filename C:\EAC rips\06 - The Flew.wav
Pre-gap length 0:00:01.53
Peak level 100.0 %
Extraction speed 4.6 X
Track quality 100.0 %
Test CRC 808F626F
Copy CRC 808F626F
Accurately ripped (confidence 2) [CEE9122D] (AR v2)
Copy OK
Track 7
Filename C:\EAC rips\07 - Go To Far.wav
Pre-gap length 0:00:01.25
Peak level 100.0 %
Extraction speed 4.9 X
Track quality 100.0 %
Test CRC 8F38DDC4
Copy CRC 8F38DDC4
Accurately ripped (confidence 2) [1E58DE19] (AR v2)
Copy OK
All tracks accurately ripped
No errors occurred
End of status report
---- CUETools DB Plugin V2.1.4
[CTDB TOCID: .ZoeNp5Qv6mB7u9n1Ow6z_iYOgg-] found
Submit result: .ZoeNp5Qv6mB7u9n1Ow6z_iYOgg- has been confirmed
Track | CTDB Status
1 | (3/3) Accurately ripped
2 | (3/3) Accurately ripped
3 | (3/3) Accurately ripped
4 | (3/3) Accurately ripped
5 | (3/3) Accurately ripped
6 | (3/3) Accurately ripped
7 | (3/3) Accurately ripped
==== Log checksum 57B2FB8C1023A04AEBBE9AC6AA6E710731BC676EBA90D5FF4853B0C452EC1F77 ====
 
Содержание индексной карты (.CUE)
REM GENRE Jazz
REM DATE 1997
REM DISCID 6A0F8C07
REM COMMENT "ExactAudioCopy v1.0b3"
CATALOG 5099748513922
PERFORMER "Henry Threadgill & Make a Move"
TITLE "Where's Your Cup?"
FILE "01 - 100 Year Old Game.wav" WAVE
TRACK 01 AUDIO
TITLE "100 Year Old Game"
PERFORMER "Henry Threadgill & Make a Move"
ISRC USSM19604270
INDEX 01 00:00:00
FILE "02 - Laughing Club.wav" WAVE
TRACK 02 AUDIO
TITLE "Laughing Club"
PERFORMER "Henry Threadgill & Make a Move"
ISRC USSM19604271
INDEX 01 00:00:00
TRACK 03 AUDIO
TITLE "Where's Your Cup?"
PERFORMER "Henry Threadgill & Make a Move"
ISRC USSM19604272
INDEX 00 04:59:52
FILE "03 - Where's Your Cup_.wav" WAVE
INDEX 01 00:00:00
FILE "04 - And This.wav" WAVE
TRACK 04 AUDIO
TITLE "And This"
PERFORMER "Henry Threadgill & Make a Move"
ISRC USSM19604273
INDEX 01 00:00:00
TRACK 05 AUDIO
TITLE "Feels Like It"
PERFORMER "Henry Threadgill & Make a Move"
ISRC USSM19604274
INDEX 00 13:39:65
FILE "05 - Feels Like It.wav" WAVE
INDEX 01 00:00:00
TRACK 06 AUDIO
TITLE "The Flew"
PERFORMER "Henry Threadgill & Make a Move"
ISRC USSM19604275
INDEX 00 06:38:57
FILE "06 - The Flew.wav" WAVE
INDEX 01 00:00:00
TRACK 07 AUDIO
TITLE "Go To Far"
PERFORMER "Henry Threadgill & Make a Move"
ISRC USSM19604276
INDEX 00 09:50:12
FILE "07 - Go To Far.wav" WAVE
INDEX 01 00:00:00
Any questions -> support@pro-jazz.com. По всем вопросам пишите -> support@pro-jazz.com
19:19
220
Нет комментариев. Ваш будет первым!