Вы используете незарегистрированную версию компонента "Вкладки"!

Поиск

(Free Improvisation) Henry Kaiser - The Five Heavenly Truths - 1993, FLAC (image+.cue), lossless

(Free Improvisation) Henry Kaiser - The Five Heavenly Truths - 1993, FLAC (image+.cue), lossless
Треклист:
Henry Kaiser / The Five Heavenly Truths
Жанр: Free Improvisation
Страна-производитель диска: US
Год издания: 1993
Издатель (лейбл): FOT Records
Номер по каталогу: FOT-HK1
Страна: US
Аудиокодек: FLAC (*.flac)
Тип рипа: image+.cue
Битрейт аудио: lossless
Продолжительность: 00:76:41
Источник (релизер): orig cd
Наличие сканов в содержимом раздачи: нет
Треклист:
1. The Best Of Times
Music By – Kaiser*, Gross*
Sampler [Waveframe] – Kevin Gross
2. Project X
Bass – Oliver DiCicco
Drums – Mark McQuade Crawford, Michael Maksymenko
Music By – Goodman*, Kaiser*, Crawford*, Maksymenko*, DiCicco*
Piano [Acoustic] – Greg Goodman
3. God Of Gamblers
Drums – John Hanes (2)
Electric Guitar, Electric Bass – Bob Adams (3)
Music By – Adams*
4. Logic Of Fire
Bass – Henry Kaiser
Music By – Kaiser*, Edgar*
Voice – Vernon Edgar
5. Tibby, Oh Tibby!
Electric Guitar, Electric Bass – Matt Henderson
Music By – Kaiser*, Henderson*
6. The Five Heavenly Truths
Music By – Kaiser*
Recorded By – Matt Saunders
7. The Welfare Elite
Bass – Andy West
Drums – John French
Guitar [Slide] – Scott Colby
Music By – Kaiser*, French*
8. Dark Comprehensions
Music By – Kaiser*, Edgar*
Piano [Acoustic] – Greg Goodman
Voice – Vernon Edgar
9. The Worst Of Times
Music By – Kaiser*, Gross*
Sampler [Waveframe] – Kevin Gross
 
Лог создания рипа
Exact Audio Copy V1.0 beta 3 from 29. August 2011
EAC extraction logfile from 11. October 2013, 4:25
Henry Kaiser / The Five Heavenly Truths
Used drive : hp DVDRAM GT31L Adapter: 0 ID: 1
Read mode : Secure
Utilize accurate stream : Yes
Defeat audio cache : Yes
Make use of C2 pointers : No
Read offset correction : 103
Overread into Lead-In and Lead-Out : No
Fill up missing offset samples with silence : Yes
Delete leading and trailing silent blocks : No
Null samples used in CRC calculations : Yes
Used interface : Native Win32 interface for Win NT & 2000
Used output format : User Defined Encoder
Selected bitrate : 128 kBit/s
Quality : High
Add ID3 tag : No
Command line compressor : C:\Users\Tania\Desktop\Audiochecker_beta_2.0.0.457\Codecs\FLAC\flac.exe
Additional command line options : -V -8 -T "Date=%year%" -T "Genre=%genre%" %source%
TOC of the extracted CD
Track | Start | Length | Start sector | End sector
---------------------------------------------------------
1 | 0:00.00 | 5:37.55 | 0 | 25329
2 | 5:37.55 | 9:59.62 | 25330 | 70316
3 | 15:37.42 | 5:45.55 | 70317 | 96246
4 | 21:23.22 | 8:40.43 | 96247 | 135289
5 | 30:03.65 | 2:35.12 | 135290 | 146926
6 | 32:39.02 | 24:30.43 | 146927 | 257219
7 | 57:09.45 | 4:04.72 | 257220 | 275591
8 | 61:14.42 | 9:15.48 | 275592 | 317264
9 | 70:30.15 | 6:10.32 | 317265 | 345046
Range status and errors
Selected range
Filename C:\Users\Tania\Documents\Neuer Ordner\Henry Kaiser - The Five Heavenly Truths.wav
Peak level 100.0 %
Extraction speed 2.3 X
Range quality 100.0 %
Test CRC 6D2B13D2
Copy CRC 6D2B13D2
Copy OK
No errors occurred
End of status report
==== Log checksum 1F546AD72E9FA45341E6ACB8BD459EA248DDEE3AE9EC8B01C9218847BDCDD1E4 ====
 
Содержание индексной карты (.CUE)
REM GENRE "Progressive Rock"
REM DATE 1993
REM DISCID 8111F809
REM COMMENT "ExactAudioCopy v1.0b3"
PERFORMER "Henry Kaiser"
TITLE "The Five Heavenly Truths"
FILE "Henry Kaiser - The Five Heavenly Truths.flac" WAVE
TRACK 01 AUDIO
TITLE "The Best Of Times"
PERFORMER "Henry Kaiser"
INDEX 01 00:00:00
TRACK 02 AUDIO
TITLE "Project X"
PERFORMER "Henry Kaiser"
INDEX 00 05:32:62
INDEX 01 05:37:55
TRACK 03 AUDIO
TITLE "God Of Gamblers"
PERFORMER "Henry Kaiser"
INDEX 00 15:35:02
INDEX 01 15:37:42
TRACK 04 AUDIO
TITLE "Logic Of Fire"
PERFORMER "Henry Kaiser"
INDEX 00 21:21:10
INDEX 01 21:23:22
TRACK 05 AUDIO
TITLE "Tibby, Oh Tibby!"
PERFORMER "Henry Kaiser"
INDEX 00 30:00:10
INDEX 01 30:03:65
TRACK 06 AUDIO
TITLE "The Five Heavenly Truths"
PERFORMER "Henry Kaiser"
INDEX 00 32:34:72
INDEX 01 32:39:02
TRACK 07 AUDIO
TITLE "The Welfare Elite"
PERFORMER "Henry Kaiser"
INDEX 00 57:04:57
INDEX 01 57:09:45
TRACK 08 AUDIO
TITLE "Dark Comprehensions"
PERFORMER "Henry Kaiser"
INDEX 00 61:12:57
INDEX 01 61:14:42
TRACK 09 AUDIO
TITLE "The Worst Of Times"
PERFORMER "Henry Kaiser"
INDEX 00 70:25:27
INDEX 01 70:30:15
Доп. информация: Tracks 1 & 9 recorded live June 1992.
Track 2 recorded live March 1988.
Track 3 recorded April 1992.
Track 4 recorded November 1990.
Track 5 recorded November 1991 in California.
Track 6 recorded live August 1990, at Derek Bailey's Company Week, London.
Track 7 recorded live August 1989.
Track 8 recorded June 1992.
 
Состав
Electric Guitar – Henry Kaiser (tracks: 1 to 3, 6 to 9)
Guitar [Midi] – Henry Kaiser (tracks: 1, 2, 5, 6, 9)
Producer – Henry Kaiser
По всем вопросам пишите личное сообщение пользователю M0p94ok.
19:19
222
Нет комментариев. Ваш будет первым!