Вы используете незарегистрированную версию компонента "Вкладки"!

Поиск

(Avant-Garde, Heavy Jazz, Free Rock) John Tchicai + Ice9 - No Trespassing - 2008, FLAC (tracks+.cue), lossless

(Avant-Garde, Heavy Jazz, Free Rock) John Tchicai + Ice9 - No Trespassing - 2008, FLAC (tracks+.cue), lossless
Треклист:
John Tchicai + Ice9 / No Trespassing
Жанр: Avant-Garde, Heavy Jazz, Free Rock
Страна-производитель диска: Italy
Год издания: 2008
Издатель (лейбл): Azzurra Music
Номер по каталогу: TBP11472
Аудиокодек: FLAC (*.flac)
Тип рипа: tracks+.cue
Битрейт аудио: lossless
Продолжительность: 1:02:07
Источник (релизер): я
Наличие сканов в содержимом раздачи: нет
Треклист:
1. Traffic Jam in the South Side (Bruno Marini / Lorenzo Mariotto) 9:51
2. Modify Lover (John Tchicai) 9:47
3. Mind the Gap (Cristina Mazza / Francesco Mariotto) 3:38
4. Metal Dilemma (Bruno Marini / Lorenzo Mariotto) 9:56
5. No Trespassing (John Tchicai) 5:42
6. Flowers for Jimi (Cristina Mazza / Matteo Martinelli) 4:25
7. Formule magique (John Tchicai) 12:48
8. Blood Must Flow* (John Tchicai) 5:59
*Lyrics by Dr. John Stewart.
Recorded « live » at Nine Notes Studios, Pastrengo, Verona-Italy on 5th-6th June 2007.
John Tchicai – Tenor Sax & Voice
Cristina Mazza – Alto Sax
Bruno Marini – Baritone Sax
Lorenzo Mariotto – Guitar
Matteo Martinelli – Bass
Francesco Mariotto – Drums
 
Лог создания рипа
Exact Audio Copy V1.0 beta 3 from 29. August 2011
EAC extraction logfile from 12. October 2013, 16:58
John Tchicai + Ice9 / No Trespassing
Used drive : SlimtypeeNAU508 5 Adapter: 1 ID: 0
Read mode : Secure
Utilize accurate stream : Yes
Defeat audio cache : Yes
Make use of C2 pointers : No
Read offset correction : 6
Overread into Lead-In and Lead-Out : No
Fill up missing offset samples with silence : Yes
Delete leading and trailing silent blocks : No
Null samples used in CRC calculations : Yes
Used interface : Native Win32 interface for Win NT & 2000
Gap handling : Appended to previous track
Used output format : User Defined Encoder
Selected bitrate : 768 kBit/s
Quality : High
Add ID3 tag : No
Command line compressor : C:\Program Files (x86)\Exact Audio Copy\Flac\flac.exe
Additional command line options : -8 -V -T "ARTIST=%artist%" -T "TITLE=%title%" -T "ALBUM=%albumtitle%" -T "DATE=%year%" -T "TRACKNUMBER=%tracknr%" -T "GENRE=%genre%" -T "PERFORMER=%albuminterpret%" -T "COMPOSER=%composer%" %haslyrics%--tag-from-file=LYRICS="%lyricsfile%"%haslyrics% -T "ALBUMARTIST=%albumartist%" -T "DISCNUMBER=%cdnumber%" -T "TOTALDISCS=%totalcds%" -T "TOTALTRACKS=%numtracks%" -T "COMMENT=%comment%" %source% -o %dest%
TOC of the extracted CD
Track | Start | Length | Start sector | End sector
---------------------------------------------------------
1 | 0:00.00 | 9:51.15 | 0 | 44339
2 | 9:51.15 | 9:47.09 | 44340 | 88373
3 | 19:38.24 | 3:38.18 | 88374 | 104741
4 | 23:16.42 | 9:56.34 | 104742 | 149475
5 | 33:13.01 | 5:41.63 | 149476 | 175113
6 | 38:54.64 | 4:25.15 | 175114 | 195003
7 | 43:20.04 | 12:47.74 | 195004 | 252602
8 | 56:08.03 | 5:59.31 | 252603 | 279558
Track 1
Filename C:\EAC rips\01 - Traffic Jam in the South Side.wav
Pre-gap length 0:00:02.00
Peak level 96.6 %
Extraction speed 2.6 X
Track quality 100.0 %
Test CRC A36352BF
Copy CRC A36352BF
Track not present in AccurateRip database
Copy OK
Track 2
Filename C:\EAC rips\02 - Modify Lover.wav
Pre-gap length 0:00:02.00
Peak level 96.6 %
Extraction speed 3.1 X
Track quality 100.0 %
Test CRC C9C85492
Copy CRC C9C85492
Track not present in AccurateRip database
Copy OK
Track 3
Filename C:\EAC rips\03 - Mind the Gap.wav
Pre-gap length 0:00:02.00
Peak level 96.6 %
Extraction speed 3.1 X
Track quality 100.0 %
Test CRC 9CD14CF7
Copy CRC 9CD14CF7
Track not present in AccurateRip database
Copy OK
Track 4
Filename C:\EAC rips\04 - Metal Dilemma.wav
Pre-gap length 0:00:02.00
Peak level 96.6 %
Extraction speed 3.7 X
Track quality 100.0 %
Test CRC B3C2FE8E
Copy CRC B3C2FE8E
Track not present in AccurateRip database
Copy OK
Track 5
Filename C:\EAC rips\05 - No Trespassing.wav
Pre-gap length 0:00:02.00
Peak level 96.6 %
Extraction speed 3.9 X
Track quality 100.0 %
Test CRC C81B5EE6
Copy CRC C81B5EE6
Track not present in AccurateRip database
Copy OK
Track 6
Filename C:\EAC rips\06 - Flowers for Jimi.wav
Pre-gap length 0:00:02.00
Peak level 96.6 %
Extraction speed 4.0 X
Track quality 100.0 %
Test CRC F109E849
Copy CRC F109E849
Track not present in AccurateRip database
Copy OK
Track 7
Filename C:\EAC rips\07 - Formule magique.wav
Pre-gap length 0:00:02.00
Peak level 96.6 %
Extraction speed 4.6 X
Track quality 100.0 %
Test CRC B9D5D983
Copy CRC B9D5D983
Track not present in AccurateRip database
Copy OK
Track 8
Filename C:\EAC rips\08 - Blood Must Flow.wav
Pre-gap length 0:00:01.74
Peak level 96.6 %
Extraction speed 4.6 X
Track quality 100.0 %
Test CRC D166FA2E
Copy CRC D166FA2E
Track not present in AccurateRip database
Copy OK
None of the tracks are present in the AccurateRip database
No errors occurred
End of status report
---- CUETools DB Plugin V2.1.4
[CTDB TOCID: wFr9hsZVqqHhI0OxvhtawFW87UE-] disk not present in database
Submit result: wFr9hsZVqqHhI0OxvhtawFW87UE- has been uploaded
==== Log checksum B868594C8138631FC2F7CCDEB0530C488B2D0EDE8DFC73C66F14EA1E45F72473 ====
 
Содержание индексной карты (.CUE)
REM GENRE Jazz
REM DATE 2008
REM DISCID 6F0E8F08
REM COMMENT "ExactAudioCopy v1.0b3"
PERFORMER "John Tchicai + Ice9"
TITLE "No Trespassing"
FILE "01 - Traffic Jam in the South Side.wav" WAVE
TRACK 01 AUDIO
TITLE "Traffic Jam in the South Side"
PERFORMER " "
ISRC ITS040800100
INDEX 01 00:00:00
TRACK 02 AUDIO
TITLE "Modify Lover"
PERFORMER " "
ISRC ITS040800101
INDEX 00 09:49:15
FILE "02 - Modify Lover.wav" WAVE
INDEX 01 00:00:00
TRACK 03 AUDIO
TITLE "Mind the Gap"
PERFORMER " "
ISRC ITS040800102
INDEX 00 09:45:09
FILE "03 - Mind the Gap.wav" WAVE
INDEX 01 00:00:00
TRACK 04 AUDIO
TITLE "Metal Dilemma"
PERFORMER " "
ISRC ITS040800103
INDEX 00 03:36:18
FILE "04 - Metal Dilemma.wav" WAVE
INDEX 01 00:00:00
TRACK 05 AUDIO
TITLE "No Trespassing"
PERFORMER " "
ISRC ITS040800104
INDEX 00 09:54:34
FILE "05 - No Trespassing.wav" WAVE
INDEX 01 00:00:00
TRACK 06 AUDIO
TITLE "Flowers for Jimi"
PERFORMER " "
ISRC ITS040800105
INDEX 00 05:39:63
FILE "06 - Flowers for Jimi.wav" WAVE
INDEX 01 00:00:00
TRACK 07 AUDIO
TITLE "Formule magique"
PERFORMER " "
ISRC ITS040800106
INDEX 00 04:23:15
FILE "07 - Formule magique.wav" WAVE
INDEX 01 00:00:00
TRACK 08 AUDIO
TITLE "Blood Must Flow"
PERFORMER " "
ISRC ITS040800107
INDEX 00 12:46:00
FILE "08 - Blood Must Flow.wav" WAVE
INDEX 01 00:00:00
По всем вопросам пишите личное сообщение пользователю M0p94ok.
19:20
255
Нет комментариев. Ваш будет первым!