Вы используете незарегистрированную версию компонента "Вкладки"!

Поиск

(Avant-Garde, Free Improvisation) Marc Ducret - Un certain malaise - 1998, FLAC (tracks+.cue), lossless

(Avant-Garde, Free Improvisation) Marc Ducret - Un certain malaise - 1998, FLAC (tracks+.cue), lossless
Треклист:
Marc Ducret / Un certain malaise
Жанр: Avant-Garde, Free Improvisation
Страна-производитель диска: U.S.A.
Год издания: 1998
Издатель (лейбл): Screwgun Records
Номер по каталогу: screwu 70005
Аудиокодек: FLAC (*.flac)
Тип рипа: tracks+.cue
Битрейт аудио: lossless
Продолжительность: 48:23
Источник (релизер): я
Наличие сканов в содержимом раздачи: нет
Треклист:
1. What Did I Forget ? / Old Brown Shoe 9:29
2. (détail) 12:49
3. Méfiance 5:52
4. Un certain malaise 12:19
5. Le bruit court 3:17
6. La Mazzurka 4:38
All compositions by Marc Ducret except « Old Brown Shoe » by G. Harrison.
Track 1 recorded live at the Festival de la Cité, Lausanne, July 11, 1997.
Tracks 2-6 recorded live at Instants chavirés, Paris, June 12 & 14, 1997.
Marc Ducret – Electric Guitar
 
Лог создания рипа
Exact Audio Copy V1.0 beta 3 from 29. August 2011
EAC extraction logfile from 12. October 2013, 15:08
Marc Ducret / Un certain malaise
Used drive : SlimtypeeNAU508 5 Adapter: 1 ID: 0
Read mode : Secure
Utilize accurate stream : Yes
Defeat audio cache : Yes
Make use of C2 pointers : No
Read offset correction : 6
Overread into Lead-In and Lead-Out : No
Fill up missing offset samples with silence : Yes
Delete leading and trailing silent blocks : No
Null samples used in CRC calculations : Yes
Used interface : Native Win32 interface for Win NT & 2000
Gap handling : Appended to previous track
Used output format : User Defined Encoder
Selected bitrate : 768 kBit/s
Quality : High
Add ID3 tag : No
Command line compressor : C:\Program Files (x86)\Exact Audio Copy\Flac\flac.exe
Additional command line options : -8 -V -T "ARTIST=%artist%" -T "TITLE=%title%" -T "ALBUM=%albumtitle%" -T "DATE=%year%" -T "TRACKNUMBER=%tracknr%" -T "GENRE=%genre%" -T "PERFORMER=%albuminterpret%" -T "COMPOSER=%composer%" %haslyrics%--tag-from-file=LYRICS="%lyricsfile%"%haslyrics% -T "ALBUMARTIST=%albumartist%" -T "DISCNUMBER=%cdnumber%" -T "TOTALDISCS=%totalcds%" -T "TOTALTRACKS=%numtracks%" -T "COMMENT=%comment%" %source% -o %dest%
TOC of the extracted CD
Track | Start | Length | Start sector | End sector
---------------------------------------------------------
1 | 0:00.00 | 9:29.05 | 0 | 42679
2 | 9:29.05 | 12:49.02 | 42680 | 100356
3 | 22:18.07 | 5:51.46 | 100357 | 126727
4 | 28:09.53 | 12:18.38 | 126728 | 182115
5 | 40:28.16 | 3:16.62 | 182116 | 196877
6 | 43:45.03 | 4:38.14 | 196878 | 217741
Track 1
Filename C:\EAC rips\01 - What Did I Forget_ - Old Brown Shoe.wav
Pre-gap length 0:00:02.00
Peak level 87.6 %
Extraction speed 2.2 X
Track quality 99.9 %
Test CRC 8DA20434
Copy CRC 8DA20434
Accurately ripped (confidence 2) [2718E001] (AR v2)
Copy OK
Track 2
Filename C:\EAC rips\02 - (détail).wav
Pre-gap length 0:00:00.15
Peak level 97.3 %
Extraction speed 3.1 X
Track quality 100.0 %
Test CRC 92BF5EB8
Copy CRC 92BF5EB8
Accurately ripped (confidence 2) [122A28B3] (AR v2)
Copy OK
Track 3
Filename C:\EAC rips\03 - Méfiance.wav
Pre-gap length 0:00:01.45
Peak level 74.5 %
Extraction speed 2.9 X
Track quality 99.9 %
Test CRC E6AC5A49
Copy CRC E6AC5A49
Accurately ripped (confidence 2) [D917F5D5] (AR v2)
Copy OK
Track 4
Filename C:\EAC rips\04 - Un certain malaise.wav
Pre-gap length 0:00:02.45
Peak level 95.2 %
Extraction speed 3.8 X
Track quality 100.0 %
Test CRC 615C27D1
Copy CRC 615C27D1
Accurately ripped (confidence 2) [16FCFC4F] (AR v2)
Copy OK
Track 5
Filename C:\EAC rips\05 - Le bruit court.wav
Pre-gap length 0:00:02.45
Peak level 80.3 %
Extraction speed 3.6 X
Track quality 100.0 %
Test CRC C523CAD2
Copy CRC C523CAD2
Accurately ripped (confidence 2) [F5867B77] (AR v2)
Copy OK
Track 6
Filename C:\EAC rips\06 - La Mazurka.wav
Pre-gap length 0:00:02.45
Peak level 95.3 %
Extraction speed 3.9 X
Track quality 100.0 %
Test CRC DB0E4CD4
Copy CRC DB0E4CD4
Accurately ripped (confidence 2) [DFB31551] (AR v2)
Copy OK
All tracks accurately ripped
No errors occurred
End of status report
---- CUETools DB Plugin V2.1.4
[CTDB TOCID: mSzuQcMRfwpAIZCf8F_qn4J4A1U-] found
Submit result: mSzuQcMRfwpAIZCf8F_qn4J4A1U- has been confirmed
Track | CTDB Status
1 | (1/1) Accurately ripped
2 | (1/1) Accurately ripped
3 | (1/1) Accurately ripped
4 | (1/1) Accurately ripped
5 | (1/1) Accurately ripped
6 | (1/1) Accurately ripped
==== Log checksum 2CB9CD1289EF0E8388CBCD986D5D9640E9A2CFCA30A503171A2E56089A53FDC7 ====
 
Содержание индексной карты (.CUE)
REM GENRE Jazz
REM DATE 1998
REM DISCID 420B5706
REM COMMENT "ExactAudioCopy v1.0b3"
PERFORMER "Marc Ducret"
TITLE "Un certain malaise"
FILE "01 - What Did I Forget_ - Old Brown Shoe.wav" WAVE
TRACK 01 AUDIO
TITLE "What Did I Forget? / Old Brown Shoe"
PERFORMER "Marc Ducret"
FLAGS DCP
INDEX 01 00:00:00
TRACK 02 AUDIO
TITLE "(détail)"
PERFORMER "Marc Ducret"
FLAGS DCP
INDEX 00 09:28:65
FILE "02 - (détail).wav" WAVE
INDEX 01 00:00:00
TRACK 03 AUDIO
TITLE "Méfiance"
PERFORMER "Marc Ducret"
FLAGS DCP
INDEX 00 12:47:32
FILE "03 - Méfiance.wav" WAVE
INDEX 01 00:00:00
TRACK 04 AUDIO
TITLE "Un certain malaise"
PERFORMER "Marc Ducret"
FLAGS DCP
INDEX 00 05:49:01
FILE "04 - Un certain malaise.wav" WAVE
INDEX 01 00:00:00
TRACK 05 AUDIO
TITLE "Le bruit court"
PERFORMER "Marc Ducret"
FLAGS DCP
INDEX 00 12:15:68
FILE "05 - Le bruit court.wav" WAVE
INDEX 01 00:00:00
TRACK 06 AUDIO
TITLE "La Mazurka"
PERFORMER "Marc Ducret"
FLAGS DCP
INDEX 00 03:14:17
FILE "06 - La Mazurka.wav" WAVE
INDEX 01 00:00:00
Any questions -> support@pro-jazz.com. По всем вопросам пишите -> support@pro-jazz.com
19:21
220
Нет комментариев. Ваш будет первым!