Вы используете незарегистрированную версию компонента "Вкладки"!

Поиск

(Avant-Garde Jazz, Free Improvisation) JD Parran & Mark Deutsch - Omegathorp: Living City - 2005, APE (tracks+.cue), lossless

(Avant-Garde Jazz, Free Improvisation) JD Parran & Mark Deutsch - Omegathorp: Living City - 2005, APE (tracks+.cue), lossless
Треклист:
♦ JD Parran & Mark Deutsch - Omegathorp: Living City ♦
Жанр: Avant-Garde Jazz, Free Improvisation
Страна-производитель диска: USA
Год издания: 2005
Издатель (лейбл): Y'all
Номер по каталогу: YALL-008
Аудиокодек: APE (*.ape)
Тип рипа: tracks+.cue
Битрейт аудио: lossless
Продолжительность: 01:11:57
Источник (релизер): Рип с диска.
Наличие сканов в содержимом раздачи: да
Треклист:
01. Explore Coming Forth [08:47]
02. Breath Textures [06:21]
03. Done Chanting Forests [09:51]
04. Done Woman [09:20]
05. Kwama Okura [24:14]
06. Improvisation [13:21]
 
Лог создания рипа
Exact Audio Copy V1.0 beta 3 from 29. August 2011
EAC extraction logfile from 20. October 2013, 17:26
J D Parran & Mark Deutsch / Omegathorp: Living City
Used drive : Optiarc DVD RW AD-5200A Adapter: 0 ID: 0
Read mode : Secure
Utilize accurate stream : Yes
Defeat audio cache : Yes
Make use of C2 pointers : No
Read offset correction : 48
Overread into Lead-In and Lead-Out : No
Fill up missing offset samples with silence : Yes
Delete leading and trailing silent blocks : No
Null samples used in CRC calculations : Yes
Used interface : Native Win32 interface for Win NT & 2000
Gap handling : Appended to previous track
Used output format : User Defined Encoder
Selected bitrate : 128 kBit/s
Quality : High
Add ID3 tag : No
Command line compressor : F:\Program Files\Monkey's Audio\wapet.exe
Additional command line options : %dest% -t "Genre=%genre%" -t "Artist=%artist%" -t "Title=%title%" -t "Album=%albumtitle%" -t "Year=%year%" -t "Track=%tracknr%" -t "Comment=%comment%" mac.exe %source% %dest% -c3000
TOC of the extracted CD
Track | Start | Length | Start sector | End sector
---------------------------------------------------------
1 | 0:00.00 | 8:47.34 | 0 | 39558
2 | 8:47.34 | 6:21.71 | 39559 | 68204
3 | 15:09.30 | 9:51.34 | 68205 | 112563
4 | 25:00.64 | 9:20.25 | 112564 | 154588
5 | 34:21.14 | 24:14.52 | 154589 | 263690
6 | 58:35.66 | 13:21.19 | 263691 | 323784
Track 1
Filename F:\2005.JD Parran & Mark Deutsch - Omegathorp\01. Explore Coming Forth.wav
Pre-gap length 0:00:02.00
Peak level 90.7 %
Extraction speed 2.6 X
Track quality 100.0 %
Test CRC FEA77718
Copy CRC FEA77718
Track not present in AccurateRip database
Copy OK
Track 2
Filename F:\2005.JD Parran & Mark Deutsch - Omegathorp\02. Breath Textures.wav
Pre-gap length 0:00:02.00
Peak level 98.0 %
Extraction speed 2.9 X
Track quality 100.0 %
Test CRC 6050FBE7
Copy CRC 6050FBE7
Track not present in AccurateRip database
Copy OK
Track 3
Filename F:\2005.JD Parran & Mark Deutsch - Omegathorp\03. Done Chanting Forests.wav
Pre-gap length 0:00:02.00
Peak level 100.0 %
Extraction speed 3.4 X
Track quality 100.0 %
Test CRC 66E536D5
Copy CRC 66E536D5
Track not present in AccurateRip database
Copy OK
Track 4
Filename F:\2005.JD Parran & Mark Deutsch - Omegathorp\04. Done Woman.wav
Pre-gap length 0:00:02.00
Peak level 99.5 %
Extraction speed 3.7 X
Track quality 100.0 %
Test CRC 093022DD
Copy CRC 093022DD
Track not present in AccurateRip database
Copy OK
Track 5
Filename F:\2005.JD Parran & Mark Deutsch - Omegathorp\05. Kwama Okura.wav
Pre-gap length 0:00:02.00
Peak level 100.0 %
Extraction speed 4.2 X
Track quality 100.0 %
Test CRC F455CA1B
Copy CRC F455CA1B
Track not present in AccurateRip database
Copy OK
Track 6
Filename F:\2005.JD Parran & Mark Deutsch - Omegathorp\06. Improvisation.wav
Pre-gap length 0:00:02.00
Peak level 100.0 %
Extraction speed 4.8 X
Track quality 100.0 %
Test CRC CA34DE2F
Copy CRC CA34DE2F
Track not present in AccurateRip database
Copy OK
None of the tracks are present in the AccurateRip database
No errors occurred
End of status report
==== Log checksum 1697E522A25BF75B764101ADA48CADAEC3E962DA0618363AC3D795D7A712E82B ====
 
Содержание индексной карты (.CUE)
REM GENRE Jazz
REM DATE 2005
REM DISCID 4010DD06
REM COMMENT "ExactAudioCopy v1.0b3"
PERFORMER "J D Parran & Mark Deutsch"
TITLE "Omegathorp: Living City"
FILE "01. Explore Coming Forth.wav" WAVE
TRACK 01 AUDIO
TITLE "Explore Coming Forth"
PERFORMER "J D Parran & Mark Deutsch"
INDEX 01 00:00:00
TRACK 02 AUDIO
TITLE "Breath Textures"
PERFORMER "J D Parran & Mark Deutsch"
INDEX 00 08:45:34
FILE "02. Breath Textures.wav" WAVE
INDEX 01 00:00:00
TRACK 03 AUDIO
TITLE "Done Chanting Forests"
PERFORMER "J D Parran & Mark Deutsch"
INDEX 00 06:19:71
FILE "03. Done Chanting Forests.wav" WAVE
INDEX 01 00:00:00
TRACK 04 AUDIO
TITLE "Done Woman"
PERFORMER "J D Parran & Mark Deutsch"
INDEX 00 09:49:34
FILE "04. Done Woman.wav" WAVE
INDEX 01 00:00:00
TRACK 05 AUDIO
TITLE "Kwama Okura"
PERFORMER "J D Parran & Mark Deutsch"
INDEX 00 09:18:25
FILE "05. Kwama Okura.wav" WAVE
INDEX 01 00:00:00
TRACK 06 AUDIO
TITLE "Improvisation"
PERFORMER "J D Parran & Mark Deutsch"
INDEX 00 24:12:52
FILE "06. Improvisation.wav" WAVE
INDEX 01 00:00:00
 
Состав
Personnel:
JD Parran - Bfl, ss, cl
Mark Deutsch - bazantar, sitar
David Darling - cello, electronics, voc
Kevin Norton - perc.
Joseph Kubera - p
Thomas Buckner - voice
Any questions -> support@pro-jazz.com. По всем вопросам пишите -> support@pro-jazz.com
19:22
197
Нет комментариев. Ваш будет первым!