Вы используете незарегистрированную версию компонента "Вкладки"!

Поиск

(Free Improvisation, African, Plainisphare) Albert Mangelsdorff Percussion Orchestra - Lanaya - 1994, FLAC (tracks+.cue), lossless

(Free Improvisation, African, Plainisphare) Albert Mangelsdorff Percussion Orchestra - Lanaya - 1994, FLAC (tracks+.cue), lossless
Треклист:
Albert Mangelsdorff Percussion Orchestra / Lanaya
Жанр: Free Improvisation, African, Plainisphare
Страна-производитель диска: Switzerland
Год издания: 1994
Издатель (лейбл): Plainisphare
Номер по каталогу: PL 1267-96
Аудиокодек: FLAC (*.flac)
Тип рипа: tracks+.cue
Битрейт аудио: lossless
Продолжительность: 57:35
Источник (релизер): я
Наличие сканов в содержимом раздачи: нет
Треклист:
1. Monsieur Sel (Djamchid Chemirani) 7:10
2. Tokwe (Albert Mangelsdorff, Nana Twum Nketia) 10:16
3. Les Deux Bandits (Djamchid Chemirani, Adama Dramé) 6:20
4. Sun Sum (Albert Mangelsdorff, Reto Weber, Nana Twum Nketia) 13:26
5. Cool April (Albert Mangelsdorff) 3:06
6. Togetherness (Albert Mangelsdorff, Reto Weber, Nana Twum Nketia, Djamchid Chemirani) 8:41
7. Landscapes (Albert Mangelsdorff, Reto Weber) 8:34
Recorded live at the Spielboden Dornbrin, Austria, November 1993.
Albert Mangelsdorff (Germany) – Trombone
Reto Weber (Switzerland) – Percussion
Nana Twum Nketia (Ghana) – African Percussion
Djamchid Chemirani (Iran) – Zarb
Adama Dramé (Burkina Faso) – Djembe
 
Лог создания рипа
Exact Audio Copy V1.0 beta 3 from 29. August 2011
EAC extraction logfile from 12. October 2013, 21:52
Albert Mangelsdorff Percussion Orchestra / Lanaya
Used drive : SlimtypeeNAU508 5 Adapter: 1 ID: 0
Read mode : Secure
Utilize accurate stream : Yes
Defeat audio cache : Yes
Make use of C2 pointers : No
Read offset correction : 6
Overread into Lead-In and Lead-Out : No
Fill up missing offset samples with silence : Yes
Delete leading and trailing silent blocks : No
Null samples used in CRC calculations : Yes
Used interface : Native Win32 interface for Win NT & 2000
Gap handling : Appended to previous track
Used output format : User Defined Encoder
Selected bitrate : 768 kBit/s
Quality : High
Add ID3 tag : No
Command line compressor : C:\Program Files (x86)\Exact Audio Copy\Flac\flac.exe
Additional command line options : -8 -V -T "ARTIST=%artist%" -T "TITLE=%title%" -T "ALBUM=%albumtitle%" -T "DATE=%year%" -T "TRACKNUMBER=%tracknr%" -T "GENRE=%genre%" -T "PERFORMER=%albuminterpret%" -T "COMPOSER=%composer%" %haslyrics%--tag-from-file=LYRICS="%lyricsfile%"%haslyrics% -T "ALBUMARTIST=%albumartist%" -T "DISCNUMBER=%cdnumber%" -T "TOTALDISCS=%totalcds%" -T "TOTALTRACKS=%numtracks%" -T "COMMENT=%comment%" %source% -o %dest%
TOC of the extracted CD
Track | Start | Length | Start sector | End sector
---------------------------------------------------------
1 | 0:00.00 | 7:10.15 | 0 | 32264
2 | 7:10.15 | 10:16.30 | 32265 | 78494
3 | 17:26.45 | 6:20.10 | 78495 | 107004
4 | 23:46.55 | 13:26.30 | 107005 | 167484
5 | 37:13.10 | 3:06.10 | 167485 | 181444
6 | 40:19.20 | 8:41.30 | 181445 | 220549
7 | 49:00.50 | 8:34.25 | 220550 | 259124
Track 1
Filename C:\EAC rips\01 - Monsieur Sel.wav
Pre-gap length 0:00:02.00
Peak level 82.0 %
Extraction speed 1.2 X
Track quality 100.0 %
Test CRC A87C6274
Copy CRC A87C6274
Accurately ripped (confidence 1) [A0E49EB7] (AR v2)
Copy OK
Track 2
Filename C:\EAC rips\02 - Tokwe.wav
Pre-gap length 0:00:03.48
Peak level 94.0 %
Extraction speed 1.4 X
Track quality 100.0 %
Test CRC 6A16C612
Copy CRC 6A16C612
Accurately ripped (confidence 1) [356435E5] (AR v2)
Copy OK
Track 3
Filename C:\EAC rips\03 - Les Deux Bandits.wav
Pre-gap length 0:00:04.20
Peak level 73.0 %
Extraction speed 1.4 X
Track quality 99.9 %
Test CRC 73284620
Copy CRC 73284620
Accurately ripped (confidence 1) [7B78B31D] (AR v2)
Copy OK
Track 4
Filename C:\EAC rips\04 - Sun Sum.wav
Pre-gap length 0:00:04.08
Peak level 92.4 %
Extraction speed 1.8 X
Track quality 99.9 %
Test CRC E1D2355B
Copy CRC E1D2355B
Accurately ripped (confidence 1) [3DC19C8B] (AR v2)
Copy OK
Track 5
Filename C:\EAC rips\05 - Cool April.wav
Pre-gap length 0:00:03.70
Peak level 50.3 %
Extraction speed 1.8 X
Track quality 100.0 %
Test CRC A7045DCF
Copy CRC A7045DCF
Accurately ripped (confidence 1) [AAD2E6BB] (AR v2)
Copy OK
Track 6
Filename C:\EAC rips\06 - Togetherness.wav
Pre-gap length 0:00:03.50
Peak level 95.4 %
Extraction speed 2.1 X
Track quality 100.0 %
Test CRC 5DE883D1
Copy CRC 5DE883D1
Accurately ripped (confidence 1) [7EF2816C] (AR v2)
Copy OK
Track 7
Filename C:\EAC rips\07 - Landscapes.wav
Pre-gap length 0:00:03.58
Peak level 87.0 %
Extraction speed 2.2 X
Track quality 100.0 %
Test CRC AD322971
Copy CRC AD322971
Accurately ripped (confidence 1) [F54202E3] (AR v2)
Copy OK
All tracks accurately ripped
No errors occurred
End of status report
---- CUETools DB Plugin V2.1.4
[CTDB TOCID: SX2ua.SEfo3ERem0kBJQ6lfqNgs-] found
Submit result: SX2ua.SEfo3ERem0kBJQ6lfqNgs- has been confirmed
Track | CTDB Status
1 | (1/1) Accurately ripped
2 | (1/1) Accurately ripped
3 | (1/1) Accurately ripped
4 | (1/1) Accurately ripped
5 | (1/1) Accurately ripped
6 | (1/1) Accurately ripped
7 | (1/1) Accurately ripped
==== Log checksum DA53FD5321AF7087C199A2BF109A389228D5908B91C94C3E9E78C872158E87B0 ====
 
Содержание индексной карты (.CUE)
REM GENRE Jazz
REM DATE 1994
REM DISCID 4D0D7F07
REM COMMENT "ExactAudioCopy v1.0b3"
PERFORMER "Albert Mangelsdorff Percussion Orchestra"
TITLE "Lanaya"
FILE "01 - Monsieur Sel.wav" WAVE
TRACK 01 AUDIO
TITLE "Monsieur Sel"
PERFORMER "Albert Mangelsdorff Percussion Orchestra"
INDEX 01 00:00:00
TRACK 02 AUDIO
TITLE "Tokwe"
PERFORMER "Albert Mangelsdorff Percussion Orchestra"
INDEX 00 07:06:42
FILE "02 - Tokwe.wav" WAVE
INDEX 01 00:00:00
TRACK 03 AUDIO
TITLE "Les Deux Bandits"
PERFORMER "Albert Mangelsdorff Percussion Orchestra"
INDEX 00 10:12:10
FILE "03 - Les Deux Bandits.wav" WAVE
INDEX 01 00:00:00
TRACK 04 AUDIO
TITLE "Sun Sum"
PERFORMER "Albert Mangelsdorff Percussion Orchestra"
INDEX 00 06:16:02
FILE "04 - Sun Sum.wav" WAVE
INDEX 01 00:00:00
TRACK 05 AUDIO
TITLE "Cool April"
PERFORMER "Albert Mangelsdorff Percussion Orchestra"
INDEX 00 13:22:35
FILE "05 - Cool April.wav" WAVE
INDEX 01 00:00:00
TRACK 06 AUDIO
TITLE "Togetherness"
PERFORMER "Albert Mangelsdorff Percussion Orchestra"
INDEX 00 03:02:35
FILE "06 - Togetherness.wav" WAVE
INDEX 01 00:00:00
TRACK 07 AUDIO
TITLE "Landscapes"
PERFORMER "Albert Mangelsdorff Percussion Orchestra"
INDEX 00 08:37:47
FILE "07 - Landscapes.wav" WAVE
INDEX 01 00:00:00
Any questions -> support@pro-jazz.com. По всем вопросам пишите -> support@pro-jazz.com
19:22
304
Нет комментариев. Ваш будет первым!