Поиск

(Post-Bop, Free Improvisation, Splasc(H)) [CD] Nico Morelli Meets Mauro Negri - Colours - 2002, FLAC (tracks+.cue), lossless

(Post-Bop, Free Improvisation, Splasc(H)) [CD] Nico Morelli Meets Mauro Negri - Colours - 2002, FLAC (tracks+.cue), lossless
Издатель (лейбл):
Треклист:
Nico Morelli Meets Mauro Negri / Colours
Жанр: Post-Bop, Free Improvisation, Splasc(H)
Носитель: CD
Страна-производитель диска: Italy
Год издания: 2002
Издатель (лейбл): Splasc(H) Records
Номер по каталогу: CDH 784.2
Аудиокодек: FLAC (*.flac)
Тип рипа: tracks+.cue
Битрейт аудио: lossless
Продолжительность: 53:59
Источник (релизер): я
Наличие сканов в содержимом раздачи: нет
Треклист:
1. Elena (Mauro Negri) 5:37
2. Ovunque Comunque (Nico Morelli) 6:19
3. Mani (Mauro Negri) 6:03
4. Hackensack (Thelonious Monk) 6:15
5. Alba di millennio (Nico Morelli) 7:12
6. Paris (Mauro Negri) 7:05
7. Pupi (Mauro Negri) 6:22
8. Tarantè (Nico Morelli) 6:27
9. Verso casa (a Peppino) (Nico Morelli) 2:40
Recorded on July 22nd, 23rd, 24th, 2002 at Obelix Studios, Ubuldo – Varese, Italy.
Nico Morelli – Piano
Mauro Negri – Clarinet
 
Лог создания рипа
Exact Audio Copy V1.0 beta 3 from 29. August 2011
EAC extraction logfile from 9. February 2014, 13:50
Nico Morelli Meets Mauro Negri / Colours
Used drive : SlimtypeeNAU508 5 Adapter: 1 ID: 0
Read mode : Secure
Utilize accurate stream : Yes
Defeat audio cache : Yes
Make use of C2 pointers : No
Read offset correction : 6
Overread into Lead-In and Lead-Out : No
Fill up missing offset samples with silence : Yes
Delete leading and trailing silent blocks : No
Null samples used in CRC calculations : Yes
Used interface : Native Win32 interface for Win NT & 2000
Gap handling : Appended to previous track
Used output format : User Defined Encoder
Selected bitrate : 768 kBit/s
Quality : High
Add ID3 tag : No
Command line compressor : C:\Program Files (x86)\Exact Audio Copy\Flac\flac.exe
Additional command line options : -8 -V -T "ARTIST=%artist%" -T "TITLE=%title%" -T "ALBUM=%albumtitle%" -T "DATE=%year%" -T "TRACKNUMBER=%tracknr%" -T "GENRE=%genre%" -T "PERFORMER=%albuminterpret%" -T "COMPOSER=%composer%" %haslyrics%--tag-from-file=LYRICS="%lyricsfile%"%haslyrics% -T "ALBUMARTIST=%albumartist%" -T "DISCNUMBER=%cdnumber%" -T "TOTALDISCS=%totalcds%" -T "TOTALTRACKS=%numtracks%" -T "COMMENT=%comment%" %source% -o %dest%
TOC of the extracted CD
Track | Start | Length | Start sector | End sector
---------------------------------------------------------
1 | 0:00.00 | 5:36.57 | 0 | 25256
2 | 5:36.57 | 6:19.08 | 25257 | 53689
3 | 11:55.65 | 6:03.18 | 53690 | 80932
4 | 17:59.08 | 6:15.22 | 80933 | 109079
5 | 24:14.30 | 7:11.74 | 109080 | 141478
6 | 31:26.29 | 7:04.49 | 141479 | 173327
7 | 38:31.03 | 6:21.44 | 173328 | 201946
8 | 44:52.47 | 6:26.43 | 201947 | 230939
9 | 51:19.15 | 2:39.70 | 230940 | 242934
Track 1
Filename C:\EAC rips\01 - Elena.wav
Pre-gap length 0:00:02.00
Peak level 79.7 %
Extraction speed 2.2 X
Track quality 100.0 %
Test CRC 98EA547E
Copy CRC 98EA547E
Track not present in AccurateRip database
Copy OK
Track 2
Filename C:\EAC rips\02 - Ovunque comunque.wav
Pre-gap length 0:00:04.00
Peak level 99.0 %
Extraction speed 2.3 X
Track quality 99.9 %
Test CRC F2F3EEA1
Copy CRC F2F3EEA1
Track not present in AccurateRip database
Copy OK
Track 3
Filename C:\EAC rips\03 - Mani.wav
Pre-gap length 0:00:04.00
Peak level 99.6 %
Extraction speed 2.9 X
Track quality 100.0 %
Test CRC 36425C9D
Copy CRC 36425C9D
Track not present in AccurateRip database
Copy OK
Track 4
Filename C:\EAC rips\04 - Hackensack.wav
Pre-gap length 0:00:04.00
Peak level 96.5 %
Extraction speed 3.2 X
Track quality 100.0 %
Test CRC 1D19583C
Copy CRC 1D19583C
Track not present in AccurateRip database
Copy OK
Track 5
Filename C:\EAC rips\05 - Alba di millennio.wav
Pre-gap length 0:00:05.00
Peak level 98.1 %
Extraction speed 3.4 X
Track quality 100.0 %
Test CRC 42CE9B6B
Copy CRC 42CE9B6B
Track not present in AccurateRip database
Copy OK
Track 6
Filename C:\EAC rips\06 - Paris.wav
Pre-gap length 0:00:04.00
Peak level 99.4 %
Extraction speed 3.3 X
Track quality 99.9 %
Test CRC 204A453A
Copy CRC 204A453A
Track not present in AccurateRip database
Copy OK
Track 7
Filename C:\EAC rips\07 - Pupi.wav
Pre-gap length 0:00:04.00
Peak level 99.2 %
Extraction speed 4.0 X
Track quality 100.0 %
Test CRC A3DE4142
Copy CRC A3DE4142
Track not present in AccurateRip database
Copy OK
Track 8
Filename C:\EAC rips\08 - Tarantè.wav
Pre-gap length 0:00:04.00
Peak level 99.9 %
Extraction speed 4.2 X
Track quality 100.0 %
Test CRC E923B156
Copy CRC E923B156
Track not present in AccurateRip database
Copy OK
Track 9
Filename C:\EAC rips\09 - Verso casa (a Peppino).wav
Pre-gap length 0:00:06.00
Peak level 99.5 %
Extraction speed 3.7 X
Track quality 100.0 %
Test CRC A5700AC5
Copy CRC A5700AC5
Track not present in AccurateRip database
Copy OK
None of the tracks are present in the AccurateRip database
No errors occurred
End of status report
---- CUETools DB Plugin V2.1.4
[CTDB TOCID: k6Hfqcnk8VJEDOJHSwqDsMix_BE-] disk not present in database
Submit result: k6Hfqcnk8VJEDOJHSwqDsMix_BE- has been uploaded
==== Log checksum E38BFF98B9C9664CCEFC2AA861B8D068B84BCBD4BDDC385B2FD305FCEC5C5CDA ====
 
Содержание индексной карты (.CUE)
REM GENRE Jazz
REM DATE 2002
REM DISCID 7C0CA709
REM COMMENT "ExactAudioCopy v1.0b3"
PERFORMER "Nico Morelli Meets Mauro Negri"
TITLE "Colours"
FILE "01 - Elena.wav" WAVE
TRACK 01 AUDIO
TITLE "Elena"
PERFORMER "Nico Morelli Meets Mauro Negri"
INDEX 01 00:00:00
TRACK 02 AUDIO
TITLE "Ovunque comunque"
PERFORMER "Nico Morelli Meets Mauro Negri"
INDEX 00 05:32:57
FILE "02 - Ovunque comunque.wav" WAVE
INDEX 01 00:00:00
TRACK 03 AUDIO
TITLE "Mani"
PERFORMER "Nico Morelli Meets Mauro Negri"
INDEX 00 06:15:08
FILE "03 - Mani.wav" WAVE
INDEX 01 00:00:00
TRACK 04 AUDIO
TITLE "Hackensack"
PERFORMER "Nico Morelli Meets Mauro Negri"
INDEX 00 05:59:18
FILE "04 - Hackensack.wav" WAVE
INDEX 01 00:00:00
TRACK 05 AUDIO
TITLE "Alba di millennio"
PERFORMER "Nico Morelli Meets Mauro Negri"
INDEX 00 06:10:22
FILE "05 - Alba di millennio.wav" WAVE
INDEX 01 00:00:00
TRACK 06 AUDIO
TITLE "Paris"
PERFORMER "Nico Morelli Meets Mauro Negri"
INDEX 00 07:07:74
FILE "06 - Paris.wav" WAVE
INDEX 01 00:00:00
TRACK 07 AUDIO
TITLE "Pupi"
PERFORMER "Nico Morelli Meets Mauro Negri"
INDEX 00 07:00:49
FILE "07 - Pupi.wav" WAVE
INDEX 01 00:00:00
TRACK 08 AUDIO
TITLE "Tarantè"
PERFORMER "Nico Morelli Meets Mauro Negri"
INDEX 00 06:17:44
FILE "08 - Tarantè.wav" WAVE
INDEX 01 00:00:00
TRACK 09 AUDIO
TITLE "Verso casa (a Peppino)"
PERFORMER "Nico Morelli Meets Mauro Negri"
INDEX 00 06:20:43
FILE "09 - Verso casa (a Peppino).wav" WAVE
INDEX 01 00:00:00
По всем вопросам пишите личное сообщение пользователю M0p94ok.
06:26
266
Нет комментариев. Ваш будет первым!