Поиск

(Post-Bop, Piano Jazz) [CD] Michael Jefry Stevens, Jeff Siegel & Tim Ferguson - Points Of View - 1997, FLAC (tracks+.cue), lossless

(Post-Bop, Piano Jazz) [CD] Michael Jefry Stevens, Jeff Siegel & Tim Ferguson - Points Of View - 1997, FLAC (tracks+.cue), lossless
Треклист:
♦ Michael Jefry Stevens, Jeff Siegel & Tim Ferguson - Points Of View ♦
Жанр: Post-Bop, Piano Jazz
Носитель: CD
Страна-производитель диска: USA
Год издания: 1997
Издатель (лейбл): Imaginary Records
Номер по каталогу: IMX-008
Аудиокодек: FLAC (*.flac)
Тип рипа: tracks+.cue
Битрейт аудио: lossless
Продолжительность: 01:09:02
Источник (релизер): Рип с диска.
Наличие сканов в содержимом раздачи: да
Треклист:
01. On Green Dolphin Street [07:26]
02. A Bicycle Built For Two [04:23]
03. The Blessing [05:24]
04. Threads [05:50]
05. Morning Song [06:36]
06. Yesterdays [04:56]
07. After The Rain [06:10]
08. Almost a Rhythm Tune [05:17]
09. Steppy [05:52]
10. Sir Roland [04:07]
11. Astor's Place [05:21]
12. Angel Eyes [07:33]
 
Лог создания рипа
Exact Audio Copy V1.0 beta 3 from 29. August 2011
EAC extraction logfile from 19. February 2014, 20:09
Stevens,Siegel & Ferguson / Points Of View
Used drive  : ATAPI   iHAS124   D   Adapter: 1  ID: 0
Read mode               : Secure
Utilize accurate stream : Yes
Defeat audio cache      : Yes
Make use of C2 pointers : No
Read offset correction                      : 6
Overread into Lead-In and Lead-Out          : No
Fill up missing offset samples with silence : Yes
Delete leading and trailing silent blocks   : No
Null samples used in CRC calculations       : Yes
Used interface                              : Native Win32 interface for Win NT & 2000
Gap handling                                : Appended to previous track
Used output format              : User Defined Encoder
Selected bitrate                : 128 kBit/s
Quality                         : High
Add ID3 tag                     : No
Command line compressor         : C:\Program Files (x86)\Exact Audio Copy\Flac\flac.exe
Additional command line options : -V -8 -T "Genre=%genre%" -T "Artist=%artist%" -T "Title=%title%" -T "Album=%albumtitle%" -T "Date=%year%" -T "Tracknumber=%tracknr%" -T "Comment=%comment%" %source%
TOC of the extracted CD
     Track |   Start  |  Length  | Start sector | End sector
    ---------------------------------------------------------
        1  |  0:00.00 |  7:26.67 |         0    |    33516
        2  |  7:26.67 |  4:23.33 |     33517    |    53274
        3  | 11:50.25 |  5:24.20 |     53275    |    77594
        4  | 17:14.45 |  5:50.70 |     77595    |   103914
        5  | 23:05.40 |  6:36.57 |    103915    |   133671
        6  | 29:42.22 |  4:56.03 |    133672    |   155874
        7  | 34:38.25 |  6:10.70 |    155875    |   183694
        8  | 40:49.20 |  5:17.45 |    183695    |   207514
        9  | 46:06.65 |  5:52.12 |    207515    |   233926
       10  | 51:59.02 |  4:07.55 |    233927    |   252506
       11  | 56:06.57 |  5:21.68 |    252507    |   276649
       12  | 61:28.50 |  7:33.52 |    276650    |   310676
Track  1
     Filename D:\1997.Michael Jefry Stevens, Jeff Siegel, Tim Ferguson - Points Of View\01. On Green Dolphin Street.wav
     Pre-gap length  0:00:02.00
     Peak level 97.3 %
     Extraction speed 6.5 X
     Track quality 100.0 %
     Test CRC B38A4553
     Copy CRC B38A4553
     Track not present in AccurateRip database
     Copy OK
Track  2
     Filename D:\1997.Michael Jefry Stevens, Jeff Siegel, Tim Ferguson - Points Of View\02. A Bicycle Built For Two.wav
     Pre-gap length  0:00:04.15
     Peak level 58.4 %
     Extraction speed 7.1 X
     Track quality 100.0 %
     Test CRC 0D81F71F
     Copy CRC 0D81F71F
     Track not present in AccurateRip database
     Copy OK
Track  3
     Filename D:\1997.Michael Jefry Stevens, Jeff Siegel, Tim Ferguson - Points Of View\03. The Blessing.wav
     Pre-gap length  0:00:03.13
     Peak level 95.7 %
     Extraction speed 7.8 X
     Track quality 100.0 %
     Test CRC 2EE4F0E4
     Copy CRC 2EE4F0E4
     Track not present in AccurateRip database
     Copy OK
Track  4
     Filename D:\1997.Michael Jefry Stevens, Jeff Siegel, Tim Ferguson - Points Of View\04. Threads.wav
     Pre-gap length  0:00:03.15
     Peak level 97.3 %
     Extraction speed 7.9 X
     Track quality 99.9 %
     Test CRC 0E3BBBAC
     Copy CRC 0E3BBBAC
     Track not present in AccurateRip database
     Copy OK
Track  5
     Filename D:\1997.Michael Jefry Stevens, Jeff Siegel, Tim Ferguson - Points Of View\05. Morning Song.wav
     Pre-gap length  0:00:03.13
     Peak level 87.5 %
     Extraction speed 8.6 X
     Track quality 99.9 %
     Test CRC 2FC9665B
     Copy CRC 2FC9665B
     Track not present in AccurateRip database
     Copy OK
Track  6
     Filename D:\1997.Michael Jefry Stevens, Jeff Siegel, Tim Ferguson - Points Of View\06. Yesterdays.wav
     Pre-gap length  0:00:03.47
     Peak level 91.7 %
     Extraction speed 9.6 X
     Track quality 100.0 %
     Test CRC 23CEB305
     Copy CRC 23CEB305
     Track not present in AccurateRip database
     Copy OK
Track  7
     Filename D:\1997.Michael Jefry Stevens, Jeff Siegel, Tim Ferguson - Points Of View\07. After The Rain.wav
     Pre-gap length  0:00:03.13
     Peak level 97.3 %
     Extraction speed 10.3 X
     Track quality 100.0 %
     Test CRC A8A1B6B9
     Copy CRC A8A1B6B9
     Track not present in AccurateRip database
     Copy OK
Track  8
     Filename D:\1997.Michael Jefry Stevens, Jeff Siegel, Tim Ferguson - Points Of View\08. Almost a Rhythm Tune.wav
     Pre-gap length  0:00:03.10
     Peak level 97.3 %
     Extraction speed 10.7 X
     Track quality 100.0 %
     Test CRC F64F65D5
     Copy CRC F64F65D5
     Track not present in AccurateRip database
     Copy OK
Track  9
     Filename D:\1997.Michael Jefry Stevens, Jeff Siegel, Tim Ferguson - Points Of View\09. Steppy.wav
     Pre-gap length  0:00:03.10
     Peak level 87.2 %
     Extraction speed 11.2 X
     Track quality 100.0 %
     Test CRC 9605F15F
     Copy CRC 9605F15F
     Track not present in AccurateRip database
     Copy OK
Track 10
     Filename D:\1997.Michael Jefry Stevens, Jeff Siegel, Tim Ferguson - Points Of View\10. Sir Roland.wav
     Pre-gap length  0:00:04.15
     Peak level 89.2 %
     Extraction speed 11.1 X
     Track quality 100.0 %
     Test CRC A0996BD5
     Copy CRC A0996BD5
     Track not present in AccurateRip database
     Copy OK
Track 11
     Filename D:\1997.Michael Jefry Stevens, Jeff Siegel, Tim Ferguson - Points Of View\11. Astor's Place.wav
     Pre-gap length  0:00:03.15
     Peak level 97.3 %
     Extraction speed 11.8 X
     Track quality 100.0 %
     Test CRC 859C1A97
     Copy CRC 859C1A97
     Track not present in AccurateRip database
     Copy OK
Track 12
     Filename D:\1997.Michael Jefry Stevens, Jeff Siegel, Tim Ferguson - Points Of View\12. Angel Eyes.wav
     Pre-gap length  0:00:03.15
     Peak level 97.3 %
     Extraction speed 12.7 X
     Track quality 100.0 %
     Test CRC 288C57D5
     Copy CRC 288C57D5
     Track not present in AccurateRip database
     Copy OK
None of the tracks are present in the AccurateRip database
No errors occurred
End of status report
==== Log checksum F0B92B9BA95C06969EBBA1F663C145CA49808CE2586BA6FDB66D56C93A818252 ====
 
 
Содержание индексной карты (.CUE)
REM GENRE Jazz
REM DATE 1997
REM DISCID A7102E0C
REM COMMENT "ExactAudioCopy v1.0b3"
PERFORMER "Stevens,Siegel & Ferguson"
TITLE "Points Of View"
FILE "01. On Green Dolphin Street.wav" WAVE
  TRACK 01 AUDIO
    TITLE "On Green Dolphin Street"
    PERFORMER "Stevens,Siegel & Ferguson"
    INDEX 01 00:00:00
  TRACK 02 AUDIO
    TITLE "A Bicycle Built For Two"
    PERFORMER "Stevens,Siegel & Ferguson"
    INDEX 00 07:22:52
FILE "02. A Bicycle Built For Two.wav" WAVE
    INDEX 01 00:00:00
  TRACK 03 AUDIO
    TITLE "The Blessing"
    PERFORMER "Stevens,Siegel & Ferguson"
    INDEX 00 04:20:20
FILE "03. The Blessing.wav" WAVE
    INDEX 01 00:00:00
  TRACK 04 AUDIO
    TITLE "Threads"
    PERFORMER "Stevens,Siegel & Ferguson"
    INDEX 00 05:21:05
FILE "04. Threads.wav" WAVE
    INDEX 01 00:00:00
  TRACK 05 AUDIO
    TITLE "Morning Song"
    PERFORMER "Stevens,Siegel & Ferguson"
    INDEX 00 05:47:57
FILE "05. Morning Song.wav" WAVE
    INDEX 01 00:00:00
  TRACK 06 AUDIO
    TITLE "Yesterdays"
    PERFORMER "Stevens,Siegel & Ferguson"
    INDEX 00 06:33:10
FILE "06. Yesterdays.wav" WAVE
    INDEX 01 00:00:00
  TRACK 07 AUDIO
    TITLE "After The Rain"
    PERFORMER "Stevens,Siegel & Ferguson"
    INDEX 00 04:52:65
FILE "07. After The Rain.wav" WAVE
    INDEX 01 00:00:00
  TRACK 08 AUDIO
    TITLE "Almost a Rhythm Tune"
    PERFORMER "Stevens,Siegel & Ferguson"
    INDEX 00 06:07:60
FILE "08. Almost a Rhythm Tune.wav" WAVE
    INDEX 01 00:00:00
  TRACK 09 AUDIO
    TITLE "Steppy"
    PERFORMER "Stevens,Siegel & Ferguson"
    INDEX 00 05:14:35
FILE "09. Steppy.wav" WAVE
    INDEX 01 00:00:00
  TRACK 10 AUDIO
    TITLE "Sir Roland"
    PERFORMER "Stevens,Siegel & Ferguson"
    INDEX 00 05:47:72
FILE "10. Sir Roland.wav" WAVE
    INDEX 01 00:00:00
  TRACK 11 AUDIO
    TITLE "Astor's Place"
    PERFORMER "Stevens,Siegel & Ferguson"
    INDEX 00 04:04:40
FILE "11. Astor's Place.wav" WAVE
    INDEX 01 00:00:00
  TRACK 12 AUDIO
    TITLE "Angel Eyes"
    PERFORMER "Stevens,Siegel & Ferguson"
    INDEX 00 05:18:53
FILE "12. Angel Eyes.wav" WAVE
    INDEX 01 00:00:00
 
 
Состав
Personnel:
Michael Jefry Stevens - p
Jeff "Siege" Siegel - dr
Tim Ferguson - b
По всем вопросам пишите личное сообщение пользователю M0p94ok.
05:26
229
Нет комментариев. Ваш будет первым!